<?xml version="1.0" standalone="no"?>
<!DOCTYPE svg PUBLIC "-//W3C//DTD SVG 1.1//EN" "http://www.w3.org/Graphics/SVG/1.1/DTD/svg11.dtd" >
<svg xmlns="http://www.w3.org/2000/svg" xmlns:xlink="http://www.w3.org/1999/xlink" version="1.1">
<metadata>
Created by FontForge 20201107 at Tue May 11 19:17:13 2021
 By 
Copyright 2019 The Quicksand Project Authors (https://github.com/andrew-paglinawan/QuicksandFamily.git), with Reserved Font Name "Quicksand"
</metadata>
<defs>
<font id="Quicksand-Medium" horiz-adv-x="0" >
  <font-face 
    font-family="Quicksand Medium"
    font-weight="500"
    font-stretch="normal"
    units-per-em="1000"
    panose-1="0 0 0 0 0 0 0 0 0 0"
    ascent="800"
    descent="-200"
    x-height="517"
    cap-height="700"
    bbox="-179 -245 1321 1150"
    underline-thickness="50"
    underline-position="-125"
    unicode-range="U+000D-FB02"
  />
<missing-glyph horiz-adv-x="584" 
d="M40 665q0 35 35 35h434q35 0 35 -35v-630q0 -35 -35 -35h-434q-35 0 -35 35v630zM95 670q-7 0 -3 -6l416 -599q2 -3 4 -2.5t2 4.5v598q0 5 -5 5h-414zM70 35q0 -5 5 -5h413q7 0 3 6l-415 599q-2 3 -4 2.5t-2 -4.5v-598z" />
    <glyph glyph-name="fi" unicode="fi" horiz-adv-x="607" 
d="M290 738q17 0 35.5 -4t32 -14t13.5 -27q0 -16 -10 -26.5t-24 -10.5q-9 0 -25 5.5t-33 5.5q-23 0 -37.5 -10t-21 -26.5t-6.5 -36.5v-553q0 -17 -11.5 -29t-28.5 -12q-18 0 -29 12t-11 29v552q0 67 41.5 106t114.5 39zM318 509q16 0 27 -10.5t11 -26.5t-11 -26.5t-27 -10.5
h-251q-16 0 -27 11t-11 26q0 17 11 27t27 10h251zM537 41q0 -17 -11.5 -29t-28.5 -12q-18 0 -29 12t-11 29v444q0 17 11.5 28.5t28.5 11.5t28.5 -11.5t11.5 -28.5v-444zM496 592q-25 0 -37 10t-12 31v14q0 21 13 31t37 10t36 -10t12 -31v-14q0 -21 -12.5 -31t-36.5 -10z" />
    <glyph glyph-name="fl" unicode="fl" horiz-adv-x="629" 
d="M290 738q17 0 35.5 -4t32 -14t13.5 -27q0 -16 -10 -26.5t-24 -10.5q-9 0 -25 5.5t-33 5.5q-23 0 -37.5 -10t-21 -26.5t-6.5 -36.5v-553q0 -17 -11.5 -29t-28.5 -12q-18 0 -29 12t-11 29v552q0 67 41.5 106t114.5 39zM318 509q16 0 27 -10.5t11 -26.5t-11 -26.5t-27 -10.5
h-251q-16 0 -27 11t-11 26q0 17 11 27t27 10h251zM548 41q0 -17 -12 -29t-29 -12t-28 12t-11 29v659q0 17 11.5 28.5t28.5 11.5q18 0 29 -11.5t11 -28.5v-659z" />
    <glyph glyph-name="f_f" unicode="ff" horiz-adv-x="771" 
d="M290 738q17 0 35.5 -4t32 -14t13.5 -27q0 -16 -10 -26.5t-24 -10.5q-9 0 -25 5.5t-33 5.5q-23 0 -37.5 -10t-21 -26.5t-6.5 -36.5v-553q0 -17 -11.5 -29t-28.5 -12q-18 0 -29 12t-11 29v552q0 67 41.5 106t114.5 39zM318 509q16 0 27 -10.5t11 -26.5t-11 -26.5t-27 -10.5
h-251q-16 0 -27 11t-11 26q0 17 11 27t27 10h251zM676 738q17 0 35.5 -4t32 -14t13.5 -27q0 -16 -10 -26.5t-24 -10.5q-9 0 -25 5.5t-33 5.5q-23 0 -37.5 -10t-21 -26.5t-6.5 -36.5v-553q0 -17 -11.5 -29t-28.5 -12q-18 0 -29 12t-11 29v552q0 67 41.5 106t114.5 39z
M704 509q16 0 27 -10.5t11 -26.5t-11 -26.5t-27 -10.5h-251q-16 0 -27 11t-11 26q0 17 11 27t27 10h251z" />
    <glyph glyph-name="f_f_i" unicode="ffi" horiz-adv-x="992" 
d="M290 738q17 0 35.5 -4t32 -14t13.5 -27q0 -16 -10 -26.5t-24 -10.5q-9 0 -25 5.5t-33 5.5q-23 0 -37.5 -10t-21 -26.5t-6.5 -36.5v-553q0 -17 -11.5 -29t-28.5 -12q-18 0 -29 12t-11 29v552q0 67 41.5 106t114.5 39zM318 509q16 0 27 -10.5t11 -26.5t-11 -26.5t-27 -10.5
h-251q-16 0 -27 11t-11 26q0 17 11 27t27 10h251zM676 738q17 0 35.5 -4t32 -14t13.5 -27q0 -16 -10 -26.5t-24 -10.5q-9 0 -25 5.5t-33 5.5q-23 0 -37.5 -10t-21 -26.5t-6.5 -36.5v-553q0 -17 -11.5 -29t-28.5 -12q-18 0 -29 12t-11 29v552q0 67 41.5 106t114.5 39z
M704 509q16 0 27 -10.5t11 -26.5t-11 -26.5t-27 -10.5h-251q-16 0 -27 11t-11 26q0 17 11 27t27 10h251zM922 41q0 -17 -11.5 -29t-28.5 -12q-18 0 -29 12t-11 29v444q0 17 11.5 28.5t28.5 11.5t28.5 -11.5t11.5 -28.5v-444zM882 592q-25 0 -37 10t-12 31v14q0 21 13 31
t37 10t36 -10t12 -31v-14q0 -21 -12.5 -31t-36.5 -10z" />
    <glyph glyph-name="f_f_l" unicode="ffl" horiz-adv-x="1014" 
d="M290 738q17 0 35.5 -4t32 -14t13.5 -27q0 -16 -10 -26.5t-24 -10.5q-9 0 -25 5.5t-33 5.5q-23 0 -37.5 -10t-21 -26.5t-6.5 -36.5v-553q0 -17 -11.5 -29t-28.5 -12q-18 0 -29 12t-11 29v552q0 67 41.5 106t114.5 39zM318 509q16 0 27 -10.5t11 -26.5t-11 -26.5t-27 -10.5
h-251q-16 0 -27 11t-11 26q0 17 11 27t27 10h251zM676 738q17 0 35.5 -4t32 -14t13.5 -27q0 -16 -10 -26.5t-24 -10.5q-9 0 -25 5.5t-33 5.5q-23 0 -37.5 -10t-21 -26.5t-6.5 -36.5v-553q0 -17 -11.5 -29t-28.5 -12q-18 0 -29 12t-11 29v552q0 67 41.5 106t114.5 39z
M704 509q16 0 27 -10.5t11 -26.5t-11 -26.5t-27 -10.5h-251q-16 0 -27 11t-11 26q0 17 11 27t27 10h251zM933 41q0 -17 -12 -29t-29 -12t-28 12t-11 29v659q0 17 11.5 28.5t28.5 11.5q18 0 29 -11.5t11 -28.5v-659z" />
    <glyph glyph-name=".notdef" horiz-adv-x="584" 
d="M40 665q0 35 35 35h434q35 0 35 -35v-630q0 -35 -35 -35h-434q-35 0 -35 35v630zM95 670q-7 0 -3 -6l416 -599q2 -3 4 -2.5t2 4.5v598q0 5 -5 5h-414zM70 35q0 -5 5 -5h413q7 0 3 6l-415 599q-2 3 -4 2.5t-2 -4.5v-598z" />
    <glyph glyph-name=".null" 
 />
    <glyph glyph-name="nonmarkingreturn" horiz-adv-x="333" 
 />
    <glyph glyph-name="CR" unicode="&#xd;" horiz-adv-x="275" 
 />
    <glyph glyph-name="space" unicode=" " horiz-adv-x="275" 
 />
    <glyph glyph-name="exclam" unicode="!" horiz-adv-x="213" 
d="M107 204q-24 0 -26 27l-17 417q-1 23 10 37.5t32 14.5q22 0 33 -14.5t10 -37.5l-17 -417q-2 -27 -25 -27zM102 0q-21 0 -32 12.5t-11 33.5v20q0 21 11 33t32 12h9q21 0 32 -12t11 -33v-20q0 -21 -11 -33.5t-32 -12.5h-9z" />
    <glyph glyph-name="quotedbl" unicode="&#x22;" horiz-adv-x="399" 
d="M63 667q4 33 37 33h31q18 0 24.5 -10.5t1.5 -27.5l-65 -213q-8 -25 -33 -25q-21 0 -18 31zM263 667q4 33 37 33h31q18 0 24.5 -10.5t0.5 -27.5l-65 -213q-8 -25 -32 -25q-22 0 -19 31z" />
    <glyph glyph-name="numbersign" unicode="#" horiz-adv-x="667" 
d="M149 0q-19 0 -29.5 14.5t-7.5 35.5l107 619q2 14 12 22.5t24 8.5q20 0 30.5 -14t7.5 -35l-107 -619q-2 -14 -12 -23t-25 -9zM107 455q-17 0 -28.5 11.5t-11.5 27.5t11.5 26t27.5 10h494q17 0 28 -11t11 -28q0 -16 -11 -26t-28 -10h-493zM412 0q-19 0 -30 14.5t-7 35.5
l106 619q3 14 13 22.5t24 8.5q19 0 30 -14t7 -35l-106 -619q-2 -14 -12 -23t-25 -9zM68 174q-17 0 -28.5 11.5t-11.5 28.5q0 16 11.5 26t28.5 10h494q17 0 28 -11.5t11 -28.5q0 -16 -11 -26t-28 -10h-494z" />
    <glyph glyph-name="dollar" unicode="$" horiz-adv-x="574" 
d="M292 -10q-74 0 -130 22t-108 70q-7 7 -11.5 15.5t-4.5 18.5q0 16 11.5 28.5t28.5 12.5q14 0 25 -11q39 -38 84.5 -58t102.5 -20q44 0 79.5 14t56.5 39t21 58q-1 40 -23.5 66t-62 43.5t-91.5 29.5q-46 11 -84.5 27t-66.5 39.5t-43.5 57t-15.5 78.5q0 57 30 100t83 66.5
t122 23.5q61 0 115.5 -20t87.5 -55q20 -19 20 -37q0 -15 -12.5 -27.5t-28.5 -12.5q-11 0 -20 8q-17 19 -43 34t-57 24t-62 9q-46 0 -81 -13.5t-54.5 -38t-19.5 -58.5q0 -38 22 -62.5t59 -40t82 -27.5q49 -12 90.5 -27.5t71.5 -38.5t46.5 -58.5t16.5 -87.5q0 -55 -31 -98
t-84.5 -67.5t-120.5 -25.5zM337 -102q0 -17 -11.5 -28.5t-29.5 -11.5q-17 0 -28 11.5t-11 28.5v872q0 17 11.5 29t28.5 12q18 0 29 -12t11 -29v-872z" />
    <glyph glyph-name="percent" unicode="%" horiz-adv-x="790" 
d="M186 335q-46 0 -78.5 25.5t-50 68t-17.5 92.5q0 51 17.5 94t50.5 68.5t79 25.5t78.5 -25.5t49.5 -68t17 -93.5t-18 -93.5t-50.5 -68t-77.5 -25.5zM187 400q38 0 56 34.5t18 86.5q0 53 -19 88t-56 35q-38 0 -56.5 -35.5t-18.5 -86.5q0 -53 19.5 -87.5t56.5 -34.5zM603 -9
q-45 0 -77.5 25.5t-50.5 68t-18 92.5q0 51 17.5 94t50.5 68.5t79 25.5q47 0 79.5 -25.5t49.5 -68t17 -93.5t-18 -93.5t-50.5 -68t-78.5 -25.5zM604 56q39 0 57 34.5t18 86.5q0 53 -19 88t-57 35t-56.5 -35.5t-18.5 -86.5q0 -53 19.5 -87.5t56.5 -34.5zM182 -2q-12 0 -24 9
t-12 25q0 9 7 21l418 633q12 17 28 17q13 0 24.5 -9t11.5 -25q0 -10 -6 -21l-418 -634q-12 -16 -29 -16z" />
    <glyph glyph-name="ampersand" unicode="&#x26;" horiz-adv-x="689" 
d="M274 -10q-71 0 -126 32.5t-86.5 84t-31.5 108.5q0 46 17.5 87t53 73.5t90.5 52.5l55 -56q-75 -16 -104.5 -55.5t-29.5 -89.5q0 -40 19 -77t58.5 -60t98.5 -23t103 21t74 57t49 80t26 89q2 12 10 19t25 7t27.5 -14t7.5 -33q-8 -56 -33 -110t-66 -97.5t-100 -69.5t-137 -26
zM630 1q-8 0 -13.5 2.5t-9.5 4.5q-65 53 -122.5 100t-111.5 97.5t-109 113.5q-35 40 -63.5 76t-45.5 71t-17 72q0 48 24 87t68.5 62t105.5 23q71 0 121 -25.5t69 -63.5q1 -1 3.5 -8.5t2.5 -16.5q0 -12 -9.5 -22.5t-26.5 -10.5q-10 0 -17 4.5t-11 9.5q-20 29 -51 46t-81 17
q-56 0 -85 -28t-29 -72q0 -30 18.5 -63.5t46 -66t53.5 -61.5q37 -41 79 -81.5t84 -77t79.5 -67t64.5 -51.5q9 -8 13 -16t4 -19q0 -10 -8.5 -23t-25.5 -13z" />
    <glyph glyph-name="quotesingle" unicode="'" horiz-adv-x="200" 
d="M63 667q4 33 37 33h32q18 0 24.5 -10.5t0.5 -27.5l-65 -213q-8 -25 -33 -25q-21 0 -18 31z" />
    <glyph glyph-name="parenleft" unicode="(" horiz-adv-x="368" 
d="M312 -188q-10 0 -19 5q-82 46 -137 114.5t-83 152.5t-28 174t29 172t84.5 151t134.5 118q9 5 19 5q16 0 25 -11.5t9 -23.5q0 -17 -16 -29q-66 -42 -111.5 -103t-69 -132.5t-23.5 -146.5t22.5 -148t68 -133.5t113.5 -101.5q15 -9 15 -28q0 -13 -9 -24t-24 -11z" />
    <glyph glyph-name="parenright" unicode=")" horiz-adv-x="368" 
d="M57 -188q-16 0 -25 12t-9 24q0 17 15 28q67 43 112.5 103.5t69 132.5t23.5 147t-22.5 147.5t-68 133.5t-114.5 101q-15 10 -15 29q0 13 9.5 24t24.5 11q10 0 19 -6q82 -45 136.5 -114t82.5 -152.5t28 -173.5t-28.5 -172.5t-84 -151.5t-135.5 -117q-8 -6 -18 -6z" />
    <glyph glyph-name="asterisk" unicode="*" horiz-adv-x="327" 
d="M163 394q-11 0 -18 8.5t-6 20.5l8 88q1 3 -1 4t-5 -1l-73 -51q-10 -7 -20.5 -5t-17.5 13q-6 12 -2 22t15 14l81 38q3 1 3 3t-3 3l-81 38q-12 6 -15 16.5t3 21.5q6 10 16.5 12t20.5 -5l73 -52q3 -1 5 0t1 4l-8 88q-1 12 6.5 20t19.5 8q11 0 18.5 -8t5.5 -20l-7 -88
q-1 -3 1 -4t4 0l74 52q10 7 21 4.5t16 -12.5q7 -12 3 -22t-15 -15l-82 -38q-3 -1 -3 -3t3 -3l82 -38q11 -5 15 -15.5t-3 -20.5q-5 -11 -16 -13t-21 4l-74 52q-2 2 -4 1t-1 -4l7 -88q2 -12 -6 -20.5t-20 -8.5z" />
    <glyph glyph-name="plus" unicode="+" horiz-adv-x="567" 
d="M84 295q-17 0 -28 11t-11 27t11 26.5t28 10.5h410q17 0 28 -11t11 -27t-11 -26.5t-28 -10.5h-410zM288 86q-18 0 -30.5 12t-12.5 30v413q0 19 12.5 31t31.5 12t30.5 -12t11.5 -31v-412q0 -19 -12 -31t-31 -12z" />
    <glyph glyph-name="comma" unicode="," horiz-adv-x="221" 
d="M178 -2q0 -29 -16.5 -57.5t-41.5 -47t-51 -18.5q-9 0 -18 6.5t-9 22.5q0 17 11 20t24 9q15 8 23.5 19.5t8.5 26.5q0 12 -8.5 19.5t-20.5 7.5q-7 0 -14.5 -2t-12.5 -6q-7 5 -12 12t-5 18q1 22 22 37.5t48 15.5q32 0 52 -24t20 -59z" />
    <glyph glyph-name="hyphen" unicode="-" horiz-adv-x="392" 
d="M95 271q-17 0 -28.5 11.5t-11.5 29.5q0 17 11.5 28t28.5 11h202q17 0 28.5 -12t11.5 -29t-11.5 -28t-28.5 -11h-202z" />
    <glyph glyph-name="period" unicode="." horiz-adv-x="204" 
d="M98 1q-21 0 -32.5 12t-11.5 33v20q0 22 11.5 34t32.5 12h8q22 0 33 -12t11 -34v-20q0 -21 -11 -33t-33 -12h-8z" />
    <glyph glyph-name="slash" unicode="/" horiz-adv-x="538" 
d="M52 -131q-13 0 -24.5 10.5t-11.5 25.5q0 9 4 18l426 851q7 14 16 20t20 6q12 0 23.5 -9.5t11.5 -25.5q0 -10 -5 -20l-425 -851q-6 -13 -15 -19t-20 -6z" />
    <glyph glyph-name="zero" unicode="0" horiz-adv-x="601" 
d="M301 -10q-83 0 -138.5 47t-84 129t-28.5 184q0 104 28.5 185t84 128t138.5 47t138.5 -47t83.5 -128t28 -185q0 -102 -28 -184t-83.5 -129t-138.5 -47zM301 71q53 0 89.5 34t55.5 96.5t19 148.5q0 87 -19 149.5t-55.5 96t-89.5 33.5t-89.5 -33.5t-56 -96t-19.5 -149.5
q0 -86 19.5 -148.5t56 -96.5t89.5 -34z" />
    <glyph glyph-name="one" unicode="1" horiz-adv-x="376" 
d="M230 0q-18 0 -30 12t-12 29v569l12 -14l-113 -78q-10 -7 -23 -7q-17 0 -29 12.5t-12 28.5q0 22 21 35l159 105q8 5 16 7t16 1q18 0 28.5 -11.5t10.5 -28.5v-619q0 -17 -12.5 -29t-31.5 -12z" />
    <glyph glyph-name="two" unicode="2" horiz-adv-x="559" 
d="M469 75q16 0 27 -11t11 -27t-11 -26.5t-27 -10.5h-363q-18 0 -29.5 10.5t-11.5 28.5q0 16 12 29l226 247q50 54 75.5 101.5t25.5 84.5q0 61 -36.5 97.5t-97.5 36.5q-27 0 -54 -11.5t-49 -31t-36 -43.5q-8 -13 -16.5 -16.5t-17.5 -3.5q-15 0 -27 10.5t-12 24.5
q0 11 6 20.5t16 21.5q21 29 52.5 52.5t69 37.5t73.5 14q64 0 111.5 -25t73.5 -71t26 -108q0 -53 -32 -117t-94 -130l-175 -194l-10 10h294z" />
    <glyph glyph-name="three" unicode="3" horiz-adv-x="528" 
d="M97 116q6 0 13.5 -2.5t16.5 -10.5q20 -18 47 -29t62 -11q43 0 79 19.5t58.5 55.5t22.5 83q0 51 -22.5 83.5t-57 48t-72.5 15.5q-14 0 -26 -2t-22.5 -5t-19.5 -3q-16 0 -25 11t-9 27q0 9 3.5 16.5t11.5 16.5l194 210l16 -19h-284q-16 0 -27 11t-11 27t11 26.5t27 10.5h326
q22 0 32 -12.5t10 -27.5q0 -9 -4.5 -17t-11.5 -15l-194 -211l-23 20q5 4 23 7.5t30 3.5q56 0 103 -27t75 -76t28 -114q0 -72 -33 -125t-90.5 -82t-129.5 -29q-40 0 -78.5 12.5t-66.5 36.5q-13 7 -17.5 16t-4.5 18q0 15 11.5 29t28.5 14z" />
    <glyph glyph-name="four" unicode="4" horiz-adv-x="547" 
d="M375 0q-17 0 -28.5 12t-11.5 29v547l16 -6l-239 -312l-4 12h374q16 0 27 -11t11 -27q0 -15 -11 -25.5t-27 -10.5h-429q-15 0 -27.5 12t-12.5 28q0 15 10 26l319 410q7 9 16 12.5t18 3.5q17 0 28 -11.5t11 -28.5v-619q0 -17 -11.5 -29t-28.5 -12z" />
    <glyph glyph-name="five" unicode="5" horiz-adv-x="556" 
d="M237 -4q-40 0 -81.5 12.5t-72.5 37.5q-8 7 -13 18t-5 21q0 12 10.5 23.5t27.5 11.5q13 0 30 -13q22 -17 49 -27t54 -10q56 0 97 21t63 59t22 89q0 46 -20.5 80.5t-57 53.5t-83.5 19q-35 0 -62.5 -10.5t-48 -21.5t-35.5 -11q-19 0 -29 8.5t-13 21.5t-2 24l39 259
q3 13 14 23t27 10h297q16 0 27 -11t11 -28q0 -16 -11 -26.5t-27 -10.5h-277l10 9l-37 -226l-16 21q11 10 33.5 20t52 17t60.5 7q65 0 116.5 -29.5t81.5 -80.5t30 -117q0 -73 -32 -128t-90.5 -85.5t-138.5 -30.5z" />
    <glyph glyph-name="six" unicode="6" horiz-adv-x="543" 
d="M287 -10q-57 0 -100.5 21.5t-72.5 58.5t-44 83t-15 95q0 43 11 96t33.5 108.5t58.5 106.5t86 91.5t115 62.5q9 2 16 2q16 0 28.5 -8.5t12.5 -30.5q0 -14 -9 -24.5t-24 -15.5q-40 -15 -78.5 -43.5t-71 -67t-56 -83t-32.5 -92.5l-24 -8q17 27 43 51t60.5 39t75.5 15
q44 0 82 -19t67 -51t45.5 -73.5t16.5 -86.5q0 -61 -29.5 -112.5t-80 -83t-114.5 -31.5zM286 65q41 0 73.5 19.5t51.5 54t19 78.5q0 41 -17 76t-48.5 56.5t-75.5 21.5q-47 0 -81 -21t-52.5 -56.5t-18.5 -78.5q0 -40 18 -74t51.5 -55t79.5 -21z" />
    <glyph glyph-name="seven" unicode="7" horiz-adv-x="525" 
d="M185 -3q-16 0 -28.5 10.5t-12.5 27.5q0 9 4 18l258 585l12 -18h-322q-16 0 -27 10.5t-11 27.5q0 16 11 26.5t27 10.5h361q18 0 29.5 -11t11.5 -28q0 -9 -4 -18l-271 -616q-5 -12 -15.5 -18.5t-22.5 -6.5z" />
    <glyph glyph-name="eight" unicode="8" horiz-adv-x="543" 
d="M371 353l-2 14q35 -15 63 -41t44.5 -59.5t16.5 -72.5q0 -54 -29.5 -99.5t-80 -72.5t-112.5 -27t-112 27t-79.5 72.5t-29.5 99.5q0 45 18.5 79t47 58t59.5 38l-5 -16q-26 11 -49.5 32.5t-38.5 52t-15 69.5q0 54 27 98t74 69.5t103 25.5q57 0 103 -25.5t73.5 -69.5
t27.5 -98q0 -41 -16 -71.5t-39.5 -51t-48.5 -31.5zM148 506q0 -36 16.5 -63t45 -42.5t61.5 -15.5q34 0 61.5 15.5t44.5 42.5t17 63q0 52 -34.5 85.5t-88.5 33.5t-88.5 -33.5t-34.5 -85.5zM271 70q62 0 101.5 36t39.5 89q0 37 -19 65.5t-51 45t-71 16.5q-38 0 -70 -16.5
t-51 -45t-19 -65.5q0 -53 39.5 -89t100.5 -36z" />
    <glyph glyph-name="nine" unicode="9" horiz-adv-x="562" 
d="M279 712q57 0 100.5 -21.5t72.5 -58.5t44 -83t15 -95q0 -43 -11 -96t-33.5 -108t-58.5 -105.5t-86 -90.5t-115 -62q-9 -3 -16 -3q-16 0 -28.5 10t-12.5 30q0 14 9 24.5t24 15.5q54 20 103.5 62.5t86 100t48.5 120.5l24 8q-16 -27 -42 -50.5t-60.5 -38.5t-76.5 -15
q-65 0 -112 31t-73 83t-26 115q0 61 29.5 112.5t80.5 83t114 31.5zM280 637q-41 0 -73.5 -19.5t-51.5 -54t-19 -78.5q0 -42 16.5 -77t48 -55.5t76.5 -20.5q47 0 81 21t52.5 56.5t18.5 77.5q0 41 -18 74.5t-51.5 54.5t-79.5 21z" />
    <glyph glyph-name="colon" unicode=":" horiz-adv-x="216" 
d="M104 408q-21 0 -32.5 12.5t-11.5 33.5v20q0 21 11.5 33t32.5 12h8q22 0 33 -12t11 -33v-20q0 -21 -11 -33.5t-33 -12.5h-8zM104 0q-21 0 -32.5 12.5t-11.5 33.5v20q0 21 11.5 33t32.5 12h8q22 0 33 -12t11 -33v-20q0 -21 -11 -33.5t-33 -12.5h-8z" />
    <glyph glyph-name="semicolon" unicode=";" horiz-adv-x="231" 
d="M125 408q-21 0 -33 12.5t-12 33.5v20q0 21 12 33t33 12h9q21 0 33 -12t12 -33v-20q0 -21 -12 -33.5t-33 -12.5h-9zM194 -2q0 -29 -16.5 -57.5t-41.5 -47t-51 -18.5q-9 0 -18 6.5t-9 22.5q0 17 11 20t24 9q15 8 23.5 19.5t8.5 26.5q0 12 -8.5 19.5t-20.5 7.5
q-7 0 -14.5 -2t-12.5 -6q-7 5 -12 12t-5 18q1 22 22 37.5t48 15.5q32 0 52 -24t20 -59z" />
    <glyph glyph-name="less" unicode="&#x3c;" horiz-adv-x="524" 
d="M429 83q-8 0 -16.5 4.5t-17.5 9.5l-342 197q-12 7 -17.5 16.5t-5.5 21.5q0 13 6.5 22.5t18.5 16.5l338 193q8 5 16 8t15 3q15 0 26.5 -12.5t11.5 -26.5q0 -10 -4.5 -17.5t-14.5 -12.5l-350 -199l-4 51l351 -202q13 -7 18 -14.5t5 -18.5q0 -15 -11 -27.5t-23 -12.5z" />
    <glyph glyph-name="equal" unicode="=" horiz-adv-x="553" 
d="M90 385q-17 0 -28.5 11t-11.5 27t11.5 26.5t28.5 10.5h373q17 0 28.5 -11t11.5 -27q0 -15 -11.5 -26t-28.5 -11h-373zM90 198q-17 0 -28.5 11.5t-11.5 27.5q0 15 11.5 25.5t28.5 10.5h373q17 0 28.5 -10.5t11.5 -26.5q0 -15 -11.5 -26.5t-28.5 -11.5h-373z" />
    <glyph glyph-name="greater" unicode="&#x3e;" horiz-adv-x="528" 
d="M97 91q-14 0 -25.5 12.5t-11.5 26.5q0 11 5.5 18t17.5 14l353 196l3 -52l-358 205q-9 6 -14 13.5t-5 18.5q0 16 11.5 28t24.5 11q8 0 16 -4t17 -9l343 -196q11 -6 17.5 -16t6.5 -22q0 -13 -5 -22.5t-17 -16.5l-347 -194q-8 -4 -16 -7.5t-16 -3.5z" />
    <glyph glyph-name="question" unicode="?" horiz-adv-x="499" 
d="M186 330q0 17 11.5 28.5t28.5 11.5q44 2 79 19.5t55.5 50t20.5 77.5q0 42 -18.5 74t-50 50t-70.5 18q-37 0 -69 -16t-55 -42q-11 -11 -25.5 -15t-29.5 6q-17 12 -18.5 28.5t11.5 30.5q33 40 82 63.5t104 23.5q61 0 111 -28t80 -77.5t30 -115.5q0 -44 -15.5 -81
t-43.5 -65.5t-65 -45.5t-80 -21q-3 0 0 0.5t6 2.5v-82q0 -17 -11 -29t-28 -12q-18 0 -29 12t-11 29v105zM224 0q-21 0 -32 12.5t-11 33.5v20q0 21 11 33t32 12h9q21 0 32 -12t11 -33v-20q0 -21 -11 -33.5t-32 -12.5h-9z" />
    <glyph glyph-name="at" unicode="@" horiz-adv-x="970" 
d="M679 55q-32 0 -57 13.5t-37.5 37.5t-7.5 55l8 61l14 -12q-18 -54 -50 -88.5t-69.5 -50.5t-75.5 -16q-41 0 -74.5 21.5t-53.5 59t-20 84.5t18.5 97.5t51 94.5t76 71t94.5 27q55 0 90.5 -35t41.5 -89l-22 -55l22 141q2 13 11 22.5t28 9.5q23 0 31 -11t4 -33l-45 -284
q-5 -34 9.5 -49t33.5 -15q34 0 64 25t52.5 65.5t35.5 91.5t13 102q0 76 -35.5 133.5t-100.5 90t-153 32.5q-100 0 -186.5 -30t-151.5 -87.5t-101.5 -140t-36.5 -188.5q0 -57 18 -112.5t55.5 -100t97 -71t143.5 -26.5q55 0 94 8t69.5 22t61.5 29q11 6 21 3t15 -16
q10 -24 -22 -40q-43 -21 -99 -42.5t-140 -21.5q-101 0 -172 31.5t-115.5 84.5t-65.5 118.5t-21 133.5q0 117 41.5 210t115 159t170.5 100.5t209 34.5q114 0 192 -42.5t117.5 -114t39.5 -157.5q0 -61 -17.5 -121.5t-50.5 -110t-78 -79.5t-100 -30zM420 119q32 0 62.5 16.5
t55.5 43.5t40.5 59.5t17.5 64.5q11 48 0.5 80t-36.5 47.5t-61 15.5q-38 0 -69 -21.5t-52.5 -55.5t-33 -73t-11.5 -74q0 -49 25.5 -76t61.5 -27z" />
    <glyph glyph-name="A" unicode="A" horiz-adv-x="644" 
d="M330 596l-235 -572q-4 -12 -14 -19t-21 -7q-19 0 -28 10t-9 24q-1 7 2 15l259 630q5 14 15.5 20.5t23.5 5.5q13 0 23.5 -7t14.5 -19l258 -624q3 -8 3 -16q0 -18 -12 -28.5t-27 -10.5q-12 0 -22 7t-15 20l-238 572zM145 187l34 78h297l15 -78h-346z" />
    <glyph glyph-name="B" unicode="B" horiz-adv-x="653" 
d="M389 700q88 0 135.5 -45.5t47.5 -128.5q0 -44 -20 -81t-58.5 -59t-94.5 -24l-2 28q35 0 72 -10t68.5 -32t51 -58t19.5 -89q0 -57 -19 -95.5t-50.5 -62t-70 -33.5t-77.5 -10h-263q-17 0 -28.5 12t-11.5 29v619q0 17 11.5 28.5t28.5 11.5h261zM377 621h-215l12 18v-249
l-11 13h216q44 0 75.5 28.5t31.5 84.5q0 50 -29 77.5t-80 27.5zM385 323h-218l7 7v-261l-8 9h222q59 0 96.5 30t37.5 93q0 49 -20 75.5t-51.5 36.5t-65.5 10z" />
    <glyph glyph-name="C" unicode="C" horiz-adv-x="645" 
d="M592 654q17 -9 19.5 -27t-9.5 -33q-9 -13 -23 -14t-28 6q-33 20 -71 31.5t-80 11.5q-59 0 -108 -20.5t-85 -57.5t-56 -88t-20 -113q0 -66 21 -118t57.5 -88.5t85 -55.5t105.5 -19q41 0 79 11t72 32q14 7 28 5t24 -14q12 -16 9 -33.5t-19 -25.5q-25 -15 -57 -27.5
t-66.5 -19.5t-69.5 -7q-72 0 -136 25t-113 72t-77.5 113.5t-28.5 149.5q0 78 27 143t75.5 113t113 75t139.5 27q52 0 101.5 -14t90.5 -40z" />
    <glyph glyph-name="D" unicode="D" horiz-adv-x="718" 
d="M378 700q73 0 128.5 -27.5t92.5 -76.5t55.5 -112.5t18.5 -133.5q0 -96 -33 -175.5t-98 -127t-164 -47.5h-250q-17 0 -28.5 12t-11.5 29v619q0 17 11.5 28.5t28.5 11.5h250zM368 78q77 0 125.5 37t71 99t22.5 136q0 54 -12.5 103.5t-39 87.5t-68 60t-99.5 22h-205l8 8
v-563l-6 10h203z" />
    <glyph glyph-name="E" unicode="E" horiz-adv-x="570" 
d="M128 700h356q17 0 29 -11t12 -28t-12 -27.5t-29 -10.5h-322l9 17v-253l-10 11h278q17 0 29 -11t12 -28t-12 -27.5t-29 -10.5h-275l7 9v-259l-6 7h319q17 0 29 -12t12 -27q0 -17 -12 -28t-29 -11h-356q-17 0 -28.5 12t-11.5 29v619q0 17 11.5 28.5t28.5 11.5z" />
    <glyph glyph-name="F" unicode="F" horiz-adv-x="565" 
d="M129 0q-18 0 -29.5 12t-11.5 29v619q0 17 11.5 28.5t28.5 11.5h351q17 0 29 -11t12 -28q0 -16 -12 -27t-29 -11h-315l6 8v-245l-5 11h269q17 0 29 -11.5t12 -28.5q0 -15 -12 -26.5t-29 -11.5h-271l7 9v-287q0 -17 -12 -29t-29 -12z" />
    <glyph glyph-name="G" unicode="G" horiz-adv-x="695" 
d="M407 -10q-77 0 -142.5 27.5t-115 76.5t-77 114.5t-27.5 141.5q0 77 27.5 142.5t77 114.5t115 76t142.5 27q51 0 98.5 -11.5t86.5 -35.5q10 -5 14.5 -14t4.5 -19q0 -17 -11.5 -29t-26.5 -12q-6 0 -11.5 2t-11.5 4q-31 16 -67 25.5t-76 9.5q-79 0 -141.5 -37t-98.5 -100
t-36 -143q0 -79 36 -142.5t98.5 -100.5t141.5 -37q40 0 82.5 11t72.5 28l-7 -24v211l16 -14h-153q-17 0 -28.5 11.5t-11.5 28.5t11.5 28.5t28.5 11.5h182q18 0 29 -12t11 -29v-231q0 -12 -5.5 -21t-14.5 -15q-45 -29 -99.5 -46.5t-113.5 -17.5z" />
    <glyph glyph-name="H" unicode="H" horiz-adv-x="720" 
d="M130 700q17 0 29 -11.5t12 -29.5v-618q0 -17 -12.5 -29t-29.5 -12q-19 0 -30 12t-11 29v618q0 18 12 29.5t30 11.5zM591 700q18 0 29.5 -11.5t11.5 -29.5v-618q0 -17 -12 -29t-30 -12q-17 0 -29 12t-12 29v618q0 18 12.5 29.5t29.5 11.5zM126 395h466l-1 -78h-468z" />
    <glyph glyph-name="I" unicode="I" horiz-adv-x="259" 
d="M171 41q0 -17 -12.5 -29t-29.5 -12q-19 0 -30 12t-11 29v618q0 18 12 29.5t30 11.5q17 0 29 -11.5t12 -29.5v-618z" />
    <glyph glyph-name="J" unicode="J" horiz-adv-x="565" 
d="M253 -10q-61 0 -110.5 31t-77.5 83q-7 12 -7 23q0 17 13 27.5t26 10.5q11 0 20.5 -6t16.5 -15q20 -34 50 -54t69 -20q41 0 72.5 18t50 49.5t18.5 71.5v451q0 17 12.5 28.5t30.5 11.5t29.5 -11.5t11.5 -28.5v-451q0 -61 -29.5 -111t-80 -79t-115.5 -29z" />
    <glyph glyph-name="K" unicode="K" horiz-adv-x="669" 
d="M582 -2q-18 0 -30 15l-266 339l61 62l271 -347q9 -13 9 -27q0 -20 -14.5 -31t-30.5 -11zM579 701q16 0 26.5 -13t10.5 -27t-12 -26l-442 -418l-7 93l392 376q15 15 32 15zM129 0q-19 0 -30 12t-11 29v618q0 18 12 29.5t30 11.5q19 0 30 -11.5t11 -29.5v-618
q0 -17 -11.5 -29t-30.5 -12z" />
    <glyph glyph-name="L" unicode="L" horiz-adv-x="542" 
d="M474 79q17 0 29 -11.5t12 -28.5t-12 -28t-29 -11h-346q-17 0 -28.5 12t-11.5 29v619q0 17 12 28.5t30 11.5q17 0 29 -11.5t12 -28.5v-599l-20 18h323z" />
    <glyph glyph-name="M" unicode="M" horiz-adv-x="824" 
d="M129 701q9 0 19.5 -5t16.5 -13l265 -401l-35 1l268 400q13 19 34 18q16 -1 28 -12t12 -29v-619q0 -17 -12 -29t-30 -12t-30 12t-12 29v543l25 -5l-236 -359q-6 -7 -14.5 -12t-17.5 -5t-18 5t-15 12l-233 359l21 26v-564q0 -17 -11 -29t-28 -12t-27.5 12t-10.5 29v619
q0 16 11.5 28.5t29.5 12.5z" />
    <glyph glyph-name="N" unicode="N" horiz-adv-x="730" 
d="M606 700q17 0 27 -10.5t10 -26.5v-621q0 -19 -12 -30.5t-29 -11.5q-9 0 -18 3.5t-14 9.5l-428 566l20 12v-554q0 -16 -10.5 -26.5t-27.5 -10.5q-16 0 -26 10.5t-10 26.5v623q0 18 11.5 29t27.5 11q9 0 18.5 -3.5t14.5 -10.5l422 -558l-13 -16v551q0 16 10.5 26.5
t26.5 10.5z" />
    <glyph glyph-name="O" unicode="O" horiz-adv-x="764" 
d="M719 350q0 -77 -25 -142.5t-70 -114.5t-107 -76t-135 -27q-74 0 -135.5 27t-106.5 76t-70 114.5t-25 142.5q0 78 25 143.5t70 114t106.5 75.5t135.5 27q73 0 135 -27t107 -75.5t70 -114t25 -143.5zM633 350q0 82 -32.5 145t-88.5 99t-130 36t-130.5 -36t-88.5 -99
t-32 -145q0 -81 32 -144.5t88.5 -99.5t130.5 -36t130 36t88.5 99.5t32.5 144.5z" />
    <glyph glyph-name="P" unicode="P" horiz-adv-x="599" 
d="M362 700q55 0 99 -27t69.5 -74t25.5 -107q0 -59 -25.5 -107t-69.5 -76t-99 -28h-203l7 12v-252q0 -17 -11 -29t-28 -12q-18 0 -28.5 12t-10.5 29v619q0 17 11.5 28.5t28.5 11.5h234zM362 358q33 0 58 18t40 49t15 67q0 38 -15 67t-40 46.5t-58 17.5h-203l7 11v-286l-7 10
h203z" />
    <glyph glyph-name="Q" unicode="Q" horiz-adv-x="769" 
d="M752 -46q14 0 25.5 -11t11.5 -27q0 -19 -18.5 -36.5t-48 -31.5t-62 -22t-60.5 -8q-61 0 -99.5 12.5t-67 28.5t-56 28.5t-65.5 12.5q-19 0 -32 -6t-25 -12t-28 -6q-17 0 -28.5 12.5t-11.5 27.5q0 26 23 35l184 66l91 -9l-170 -60l28 21q39 0 70 -12t59 -27t59.5 -27
t71.5 -12q35 0 58.5 10.5t38.5 20.5q15 11 26.5 21.5t25.5 10.5zM719 350q0 -77 -25 -142.5t-70 -114.5t-107 -76t-135 -27q-74 0 -135.5 27t-106.5 76t-70 114.5t-25 142.5q0 78 25 143.5t70 114t106.5 75.5t135.5 27q73 0 135 -27t107 -75.5t70 -114t25 -143.5zM633 350
q0 82 -32.5 145t-88.5 99t-130 36t-130.5 -36t-88.5 -99t-32 -145q0 -81 32 -144.5t88.5 -99.5t130.5 -36t130 36t88.5 99.5t32.5 144.5z" />
    <glyph glyph-name="R" unicode="R" horiz-adv-x="676" 
d="M134 0q-19 0 -32.5 12t-13.5 29v619q0 17 11.5 28.5t28.5 11.5h276q56 0 101 -25.5t71.5 -70t26.5 -102.5q0 -42 -16 -78.5t-44 -63t-64 -40.5l-22 16q34 -8 61 -28.5t44 -52t18 -73.5q2 -37 5 -59t9 -34.5t17 -19.5q14 -9 18.5 -24t-5.5 -29q-6 -9 -17 -12.5t-22 -2.5
t-19 6q-16 9 -31 26.5t-25 50.5t-10 90q0 32 -10 53t-27 34t-38 18t-43 5h-223l12 18v-261q0 -17 -10 -29t-27 -12zM159 356h245q29 2 54.5 20t42 50.5t16.5 73.5q0 53 -33.5 88t-84.5 35h-236l8 19v-304z" />
    <glyph glyph-name="S" unicode="S" horiz-adv-x="574" 
d="M292 -10q-74 0 -130 22t-108 70q-7 7 -11.5 15.5t-4.5 18.5q0 16 11.5 28.5t28.5 12.5q14 0 25 -11q39 -38 84.5 -58t102.5 -20q44 0 79.5 14t56.5 39t21 58q-1 40 -23.5 66t-62 43.5t-91.5 29.5q-46 11 -84.5 27t-66.5 39.5t-43.5 57t-15.5 78.5q0 57 30 100t83 66.5
t122 23.5q61 0 115.5 -20t87.5 -55q20 -19 20 -37q0 -15 -12.5 -27.5t-28.5 -12.5q-11 0 -20 8q-17 19 -43 34t-57 24t-62 9q-46 0 -81 -13.5t-54.5 -38t-19.5 -58.5q0 -38 22 -62.5t59 -40t82 -27.5q49 -12 90.5 -27.5t71.5 -38.5t46.5 -58.5t16.5 -87.5q0 -55 -31 -98
t-84.5 -67.5t-120.5 -25.5z" />
    <glyph glyph-name="T" unicode="T" horiz-adv-x="611" 
d="M305 0q-18 0 -30 12t-12 29v618h85v-618q0 -17 -12 -29t-31 -12zM73 624q-17 0 -28.5 10.5t-11.5 27.5t11.5 27.5t28.5 10.5h465q17 0 29 -10.5t12 -27.5q0 -18 -12 -28t-29 -10h-465z" />
    <glyph glyph-name="U" unicode="U" horiz-adv-x="710" 
d="M584 701q17 0 28 -12t11 -29v-397q0 -77 -35.5 -138t-95.5 -96.5t-136 -35.5q-77 0 -137.5 35.5t-95.5 96.5t-35 138v397q0 17 11.5 29t30.5 12q16 0 28.5 -12t12.5 -29v-397q0 -55 25 -98t67.5 -67.5t92.5 -24.5q51 0 94 24.5t69.5 67.5t26.5 98v397q0 17 10 29t28 12z
" />
    <glyph glyph-name="V" unicode="V" horiz-adv-x="669" 
d="M596 701q17 0 29 -10.5t12 -27.5q0 -8 -4 -18l-261 -619q-6 -13 -16.5 -19.5t-22.5 -6.5q-11 1 -21 7.5t-15 18.5l-260 618q-2 4 -3 8.5t-1 9.5q0 19 13.5 29.5t26.5 10.5q27 0 39 -28l239 -570h-23l231 572q12 25 37 25z" />
    <glyph glyph-name="W" unicode="W" horiz-adv-x="959" 
d="M890 703q16 0 29.5 -11t13.5 -31q0 -7 -2 -15l-213 -620q-4 -12 -14.5 -18.5t-21.5 -7.5q-12 0 -23 6.5t-17 19.5l-167 404l8 -3l-166 -401q-6 -13 -17 -19.5t-23 -6.5q-11 1 -21.5 7.5t-14.5 18.5l-213 620q-2 8 -2 14q0 20 14.5 31.5t29.5 11.5q12 0 23 -7t15 -19
l187 -552h-14l163 403q5 12 15 19t23 7q12 0 22.5 -7t14.5 -19l158 -397l-12 -5l186 551q4 12 15 19t24 7z" />
    <glyph glyph-name="X" unicode="X" horiz-adv-x="622" 
d="M547 703q15 0 26.5 -11t11.5 -25q0 -13 -9 -25l-220 -297l-45 63l204 276q13 19 32 19zM79 703q21 0 33 -17l464 -625q8 -12 8 -25q0 -18 -13 -29t-27 -11q-20 0 -33 17l-464 626q-8 10 -8 24q0 17 12.5 28.5t27.5 11.5zM75 -4q-16 0 -26.5 11.5t-10.5 23.5q0 14 10 27
l221 301l43 -66l-205 -279q-12 -18 -32 -18z" />
    <glyph glyph-name="Y" unicode="Y" horiz-adv-x="572" 
d="M514 704q17 0 28.5 -12.5t11.5 -28.5q0 -6 -1.5 -12.5t-5.5 -12.5l-232 -323l13 49v-323q0 -17 -11.5 -29t-27.5 -12q-18 0 -29.5 12t-11.5 29v315l7 -26l-225 304q-6 8 -8.5 15.5t-2.5 14.5q0 17 14 28.5t28 11.5q20 0 33 -19l207 -284l-19 3l199 280q13 20 33 20z" />
    <glyph glyph-name="Z" unicode="Z" horiz-adv-x="646" 
d="M559 700q18 0 31 -11t13 -28q0 -13 -9 -25l-430 -566l-6 7h397q17 0 29 -11t12 -27q0 -17 -12 -28t-29 -11h-465q-18 0 -30 13t-12 27q0 13 9 25l429 564l8 -5h-374q-17 0 -29 11t-12 27q0 17 12 27.5t29 10.5h439z" />
    <glyph glyph-name="bracketleft" unicode="[" horiz-adv-x="400" 
d="M114 -190q-14 0 -24 10t-10 24v822q0 15 10 24.5t24 9.5h222q15 0 24.5 -9.5t9.5 -23.5t-9.5 -23.5t-24.5 -9.5h-186l8 7v-776l-9 13h187q15 0 24.5 -10t9.5 -25q0 -13 -9.5 -23t-24.5 -10h-222z" />
    <glyph glyph-name="backslash" unicode="\" horiz-adv-x="538" 
d="M486 -133q-13 0 -21.5 7t-13.5 17l-429 860q-3 5 -4 9.5t-1 8.5q0 15 11.5 24t24.5 9q15 0 22.5 -6.5t13.5 -17.5l429 -860q5 -9 5 -18q0 -15 -12.5 -24t-24.5 -9z" />
    <glyph glyph-name="bracketright" unicode="]" horiz-adv-x="400" 
d="M286 700q15 0 24.5 -9.5t9.5 -24.5v-822q0 -14 -9.5 -24t-24.5 -10h-222q-14 0 -24 9.5t-10 24.5q0 14 10 23.5t24 9.5h186l-7 -8v776l9 -12h-188q-14 0 -24 10t-10 24t10 23.5t24 9.5h222z" />
    <glyph glyph-name="asciicircum" unicode="^" horiz-adv-x="551" 
d="M95 371q-16 0 -28 12t-12 28q0 8 3.5 15t8.5 15l155 271q9 16 22 20.5t31 4.5q21 0 33.5 -5.5t21.5 -19.5l155 -272q5 -7 8.5 -14t3.5 -14q0 -16 -12 -28.5t-30 -12.5q-11 0 -20.5 4.5t-15.5 15.5l-151 268l18 2l-155 -270q-6 -11 -15 -15.5t-21 -4.5z" />
    <glyph glyph-name="underscore" unicode="_" horiz-adv-x="679" 
d="M90 -160q-15 0 -25 10t-10 24q0 15 10 24t25 9h499q16 0 25.5 -9t9.5 -25q0 -14 -9.5 -23.5t-25.5 -9.5h-499z" />
    <glyph glyph-name="grave" unicode="`" horiz-adv-x="237" 
d="M164 562q-6 0 -12.5 3.5t-12.5 7.5l-85 66q-11 7 -16.5 15.5t-5.5 19.5q0 17 12 26.5t25 9.5t22 -6t16 -13l74 -85q9 -10 9 -20t-7 -17t-19 -7z" />
    <glyph glyph-name="a" unicode="a" horiz-adv-x="614" 
d="M500 522q17 0 28.5 -11.5t11.5 -28.5v-441q0 -17 -11.5 -29t-28.5 -12q-18 0 -29 12t-11 29v95l19 2q0 -22 -15 -48t-41 -48.5t-61.5 -37t-76.5 -14.5q-68 0 -122 35.5t-85.5 96.5t-31.5 139q0 79 31.5 139.5t85.5 95t120 34.5q43 0 80 -14t64.5 -38t43 -53t15.5 -58
l-26 6v109q0 17 11 28.5t29 11.5zM294 64q50 0 88.5 26t60 70.5t21.5 100.5q0 55 -21.5 99.5t-60 70t-88.5 25.5q-49 0 -87.5 -25t-60.5 -69t-22 -101q0 -56 21.5 -100.5t60 -70.5t88.5 -26z" />
    <glyph glyph-name="b" unicode="b" horiz-adv-x="614" 
d="M329 530q68 0 122 -34.5t85.5 -94.5t31.5 -139t-31.5 -140t-85 -96.5t-120.5 -35.5q-37 0 -69.5 11.5t-59 31t-44.5 43t-26 46.5l22 14v-100q0 -17 -11 -29t-29 -12q-17 0 -28.5 11.5t-11.5 29.5v663q0 17 11.5 29t28.5 12q18 0 29 -12t11 -29v-308l-15 8q7 25 24.5 48.5
t43 42t57 29.5t65.5 11zM320 456q-50 0 -88.5 -25t-60 -69t-21.5 -100t21.5 -101t60 -71t88.5 -26t88 26t60 71t22 101t-22 100t-60 69t-88 25z" />
    <glyph glyph-name="c" unicode="c" horiz-adv-x="519" 
d="M304 530q51 0 92 -11t65 -30t24 -43q0 -13 -9 -25t-24 -12q-14 0 -22.5 5t-16 13t-20.5 14q-12 7 -35 11t-46 4q-55 0 -96.5 -26t-65.5 -70t-24 -100t23 -100t64 -70t95 -26q35 0 56 6t35 14q18 10 27.5 20t25.5 10q17 0 26.5 -11t9.5 -27q0 -18 -25 -38t-67.5 -34
t-96.5 -14q-76 0 -133 35.5t-88.5 97t-31.5 137.5t32.5 137t90.5 97t135 36z" />
    <glyph glyph-name="d" unicode="d" horiz-adv-x="614" 
d="M500 740q17 0 28.5 -11.5t11.5 -28.5v-659q0 -17 -11.5 -29t-28.5 -12q-18 0 -29 12t-11 29v95l19 7q0 -24 -15 -50.5t-41 -49.5t-61.5 -38t-76.5 -15q-67 0 -121.5 35t-86 96t-31.5 139q0 79 31.5 140t85.5 95.5t120 34.5q42 0 79 -14t64.5 -38t43.5 -53t16 -58l-26 6
v327q0 17 11 28.5t29 11.5zM294 64q50 0 88.5 25.5t60 70t21.5 100.5q0 57 -21.5 101t-60 69.5t-88.5 25.5q-49 0 -87.5 -25.5t-60.5 -69.5t-22 -101q0 -55 22 -99.5t60.5 -70.5t87.5 -26z" />
    <glyph glyph-name="e" unicode="e" horiz-adv-x="573" 
d="M313 -10q-80 0 -140 34t-93.5 93.5t-33.5 137.5q0 87 34.5 148.5t90 94t117.5 32.5q46 0 89 -17t76 -49.5t53 -78t21 -101.5q0 -16 -12 -27t-28 -11h-395l-18 69h385l-16 -14v22q-4 41 -27.5 70.5t-57 45.5t-70.5 16q-30 0 -59.5 -10.5t-53 -34t-38 -60.5t-14.5 -89
q0 -58 23.5 -102t65.5 -69.5t98 -25.5q35 0 61 9t45 22.5t32 27.5q13 9 25 9q15 0 24.5 -10t9.5 -24q0 -17 -16 -30q-28 -31 -76 -54.5t-102 -23.5z" />
    <glyph glyph-name="f" unicode="f" horiz-adv-x="386" 
d="M290 738q17 0 35.5 -4t32 -14t13.5 -27q0 -16 -10 -26.5t-24 -10.5q-9 0 -25 5.5t-33 5.5q-23 0 -37.5 -10t-21 -26.5t-6.5 -36.5v-553q0 -17 -11.5 -29t-28.5 -12q-18 0 -29 12t-11 29v552q0 67 41.5 106t114.5 39zM318 509q16 0 27 -10.5t11 -26.5t-11 -26.5t-27 -10.5
h-251q-16 0 -27 11t-11 26q0 17 11 27t27 10h251z" />
    <glyph glyph-name="g" unicode="g" horiz-adv-x="629" 
d="M291 530q43 0 80 -14.5t64.5 -37.5t43 -48t15.5 -47l-19 12v87q0 17 11 28.5t29 11.5q17 0 28.5 -11.5t11.5 -28.5v-438q0 -82 -34.5 -136t-92.5 -81t-130 -27q-30 0 -66 8t-64 19.5t-36 23.5q-15 10 -18.5 22.5t4.5 23.5q9 14 23.5 14t36.5 -9q9 -3 28.5 -10t44 -12.5
t48.5 -5.5q85 0 130.5 44.5t45.5 117.5v93l11 -5q-6 -28 -24.5 -52t-45 -42.5t-58.5 -29t-65 -10.5q-70 0 -126 35t-88.5 96t-32.5 139q0 79 32.5 140t88 95.5t124.5 34.5zM301 456q-51 0 -91.5 -25.5t-63 -69.5t-22.5 -101q0 -55 22.5 -99.5t63 -70.5t91.5 -26
q52 0 92 25.5t63 69.5t23 101q0 58 -23 102t-63 69t-92 25z" />
    <glyph glyph-name="h" unicode="h" horiz-adv-x="574" 
d="M324 525q66 0 104.5 -28.5t55 -76t16.5 -105.5v-274q0 -17 -11.5 -29t-28.5 -12t-28.5 12t-11.5 29v274q0 38 -11 68.5t-36.5 49t-69.5 18.5q-41 0 -75 -18.5t-54 -49t-20 -68.5v-274q0 -17 -11.5 -29t-28.5 -12t-28.5 12t-11.5 29v659q0 17 11.5 28.5t28.5 11.5
q18 0 29 -11.5t11 -28.5v-299l-20 -22q5 26 22 52.5t43 47.5t58 33.5t67 12.5z" />
    <glyph glyph-name="i" unicode="i" horiz-adv-x="221" 
d="M151 41q0 -17 -11.5 -29t-28.5 -12q-18 0 -29 12t-11 29v444q0 17 11.5 28.5t28.5 11.5t28.5 -11.5t11.5 -28.5v-444zM111 592q-25 0 -37 10t-12 31v14q0 21 13 31t37 10t36 -10t12 -31v-14q0 -21 -12.5 -31t-36.5 -10z" />
    <glyph glyph-name="j" unicode="j" horiz-adv-x="272" 
d="M168 -34q0 -51 -22.5 -87t-56.5 -56t-71 -20q-17 0 -27.5 11t-10.5 26v7q0 15 10 24t25 13q23 6 39 18.5t25 33t9 48.5v493q0 17 11.5 29t28.5 12q18 0 29 -12t11 -29v-511zM128 592q-25 0 -37 10t-12 31v14q0 21 13 31t37 10t36 -10t12 -31v-14q0 -21 -12.5 -31
t-36.5 -10z" />
    <glyph glyph-name="k" unicode="k" horiz-adv-x="547" 
d="M122 0q-18 0 -29 12t-11 29v659q0 17 11 28.5t29 11.5q17 0 28.5 -11.5t11.5 -28.5v-659q0 -17 -11.5 -29t-28.5 -12zM454 520q16 0 27.5 -12.5t11.5 -25.5q0 -17 -16 -30l-324 -283l-3 93l276 246q12 12 28 12zM465 1q-17 0 -30 13l-213 227l60 55l211 -226
q12 -13 12 -30q0 -18 -14 -28.5t-26 -10.5z" />
    <glyph glyph-name="l" unicode="l" horiz-adv-x="243" 
d="M162 41q0 -17 -12 -29t-29 -12t-28 12t-11 29v659q0 17 11.5 28.5t28.5 11.5q18 0 29 -11.5t11 -28.5v-659z" />
    <glyph glyph-name="m" unicode="m" horiz-adv-x="916" 
d="M321 525q68 0 110.5 -34.5t56.5 -97.5h-15l7 18q12 28 41 54t67 43t79 17q66 0 104 -28.5t54.5 -76t16.5 -106.5v-273q0 -17 -11.5 -29t-28.5 -12q-18 0 -29 12t-11 29v271q0 39 -11.5 70.5t-37 50t-69.5 18.5q-41 0 -75 -18.5t-54 -50t-20 -70.5v-271q0 -17 -11 -29
t-29 -12q-17 0 -28.5 12t-11.5 29v274q0 38 -10.5 68.5t-35.5 49t-69 18.5q-40 0 -73 -18.5t-53 -49t-20 -68.5v-274q0 -17 -11.5 -29t-28.5 -12t-28.5 12t-11.5 29v436q0 17 11.5 28.5t28.5 11.5q18 0 29 -11.5t11 -28.5v-76l-22 -24q4 26 20.5 52t42.5 48t58 35t68 13z
" />
    <glyph glyph-name="n" unicode="n" horiz-adv-x="584" 
d="M331 530q68 0 107 -28t55.5 -75t16.5 -105v-281q0 -17 -11.5 -29t-28.5 -12t-28.5 12t-11.5 29v279q0 38 -11.5 68.5t-38 49t-72.5 18.5q-42 0 -77 -18.5t-56 -49t-21 -68.5v-279q0 -17 -11.5 -29t-28.5 -12t-28.5 12t-11.5 29v436q0 17 11.5 28.5t28.5 11.5
q18 0 29 -11.5t11 -28.5v-71l-20 -22q5 26 23 52.5t45 47.5t60 33.5t69 12.5z" />
    <glyph glyph-name="o" unicode="o" horiz-adv-x="611" 
d="M565 260q0 -78 -34.5 -139t-93 -96t-131.5 -35t-132 35t-93.5 96t-34.5 139t34.5 139t93.5 96t132 35t131.5 -35t93 -96t34.5 -139zM485 260q0 58 -23.5 102t-64 69t-91.5 25t-91.5 -25t-64.5 -69t-24 -102q0 -57 24 -101t64.5 -69.5t91.5 -25.5t91.5 25.5t64 69.5
t23.5 101z" />
    <glyph glyph-name="p" unicode="p" horiz-adv-x="614" 
d="M329 525q68 0 122 -34t85.5 -94t31.5 -138q0 -77 -31.5 -137.5t-85 -95t-120.5 -34.5q-37 0 -69.5 11.5t-59 30t-44.5 42t-26 46.5l22 14v-295q0 -17 -11 -29t-29 -12q-17 0 -28.5 11.5t-11.5 29.5v639q0 17 11.5 28.5t28.5 11.5q18 0 29 -11.5t11 -28.5v-89l-15 8
q7 25 24.5 48t43 40.5t57 27.5t65.5 10zM320 451q-50 0 -88.5 -25t-60 -68t-21.5 -99q0 -55 21.5 -99t60 -69t88.5 -25t88 25t60 69t22 99q0 56 -22 99t-60 68t-88 25z" />
    <glyph glyph-name="q" unicode="q" horiz-adv-x="614" 
d="M500 520q17 0 28.5 -11.5t11.5 -28.5v-639q0 -17 -11.5 -29t-28.5 -12q-18 0 -29 12t-11 29v295l19 7q0 -24 -15 -50.5t-41 -49.5t-61.5 -38t-76.5 -15q-67 0 -121.5 35t-86 96t-31.5 139q0 79 31.5 140t85.5 95.5t120 34.5q42 0 79 -14t64.5 -38t43.5 -53t16 -58l-26 6
v107q0 17 11 28.5t29 11.5zM294 64q50 0 88.5 25.5t60 70t21.5 100.5q0 57 -21.5 101t-60 69.5t-88.5 25.5q-49 0 -87.5 -25.5t-60.5 -69.5t-22 -101q0 -55 22 -99.5t60.5 -70.5t87.5 -26z" />
    <glyph glyph-name="r" unicode="r" horiz-adv-x="401" 
d="M114 0q-17 0 -28.5 12t-11.5 29v436q0 17 11.5 28.5t28.5 11.5q18 0 29 -11.5t11 -28.5v-132l-12 21q6 31 21.5 60.5t39.5 53t55 37t68 13.5q22 0 40.5 -10.5t18.5 -29.5q0 -21 -11 -31t-25 -10q-13 0 -25 5.5t-30 5.5q-25 0 -49.5 -13.5t-45 -38.5t-33 -56.5
t-12.5 -67.5v-243q0 -17 -11.5 -29t-28.5 -12z" />
    <glyph glyph-name="s" unicode="s" horiz-adv-x="474" 
d="M45 82q-9 13 -8 27.5t17 25.5q10 7 23.5 6t24.5 -13q28 -33 64 -52.5t88 -19.5q24 1 48 8t40.5 24.5t16.5 46.5q0 28 -17 44.5t-44 27t-59 18.5q-33 9 -65 20.5t-57.5 29t-41 44t-15.5 64.5q0 45 24.5 78t66 51t90.5 18q28 0 58.5 -6.5t59.5 -22t51 -42.5q9 -10 10 -25
t-13 -27q-11 -8 -24.5 -7t-22.5 10q-21 25 -52.5 38.5t-69.5 13.5q-24 0 -47 -7t-38.5 -23.5t-15.5 -45.5q1 -27 18 -44t46 -27.5t64 -20.5q32 -8 61.5 -18.5t53.5 -27.5t38 -43.5t14 -66.5q0 -46 -26 -79.5t-68.5 -51t-91.5 -17.5q-55 0 -108.5 21t-92.5 71z" />
    <glyph glyph-name="t" unicode="t" horiz-adv-x="363" 
d="M54 514h235q16 0 26.5 -11t10.5 -26q0 -16 -10.5 -26.5t-26.5 -10.5h-235q-15 0 -26 11t-11 27q0 15 11 25.5t26 10.5zM159 650q17 0 28 -11.5t11 -28.5v-483q0 -24 7 -36t18.5 -16.5t22.5 -4.5q10 0 17.5 3.5t17.5 3.5t18.5 -9.5t8.5 -24.5q0 -18 -21 -30.5t-47 -12.5
q-14 0 -34.5 2t-40.5 13t-33.5 36.5t-13.5 71.5v487q0 17 12 28.5t29 11.5z" />
    <glyph glyph-name="u" unicode="u" horiz-adv-x="575" 
d="M461 517q18 0 29 -11.5t11 -28.5v-273q0 -101 -56.5 -156.5t-157.5 -55.5q-100 0 -156.5 55.5t-56.5 156.5v273q0 17 11.5 28.5t28.5 11.5q18 0 29 -11.5t11 -28.5v-273q0 -68 35 -103t98 -35q65 0 99.5 35t34.5 103v273q0 17 11.5 28.5t28.5 11.5z" />
    <glyph glyph-name="v" unicode="v" horiz-adv-x="540" 
d="M74 526q12 0 23 -6.5t16 -18.5l166 -390l-16 -8l169 397q11 27 37 26q15 0 26 -10t11 -25q0 -6 -1.5 -11.5t-3.5 -9.5l-193 -444q-11 -25 -35 -26q-13 -1 -24.5 5.5t-16.5 20.5l-193 443q-2 4 -3.5 9t-1.5 12q0 13 10.5 24.5t29.5 11.5z" />
    <glyph glyph-name="w" unicode="w" horiz-adv-x="757" 
d="M684 526q16 0 27.5 -11t11.5 -29q0 -4 -0.5 -8.5t-2.5 -8.5l-154 -443q-5 -13 -16.5 -20t-24.5 -6q-23 1 -35 26l-126 316l20 -3l-114 -313q-11 -25 -35 -26q-13 -1 -25 6t-16 20l-157 443q-3 9 -3 17q0 16 11 28t30 12q12 0 22 -6t14 -19l135 -394l-21 1l117 300
q10 25 37 25q14 0 22.5 -6.5t12.5 -18.5l122 -300l-25 -2l135 395q9 25 38 25z" />
    <glyph glyph-name="x" unicode="x" horiz-adv-x="485" 
d="M69 523q19 0 32 -17l348 -444q8 -11 8 -24q0 -17 -12 -29t-28 -12q-19 0 -33 18l-348 443q-8 11 -8 24q0 18 12.5 29.5t28.5 11.5zM69 -2q-13 0 -26 10t-13 26q0 13 10 25l164 207l42 -66l-145 -186q-12 -16 -32 -16zM417 523q17 0 27.5 -11t10.5 -25q0 -6 -2.5 -13
t-7.5 -13l-163 -209l-42 61l144 192q14 18 33 18z" />
    <glyph glyph-name="y" unicode="y" horiz-adv-x="575" 
d="M461 525q17 0 28.5 -11.5t11.5 -28.5v-436q0 -84 -33 -139.5t-88.5 -82.5t-125.5 -27q-39 0 -75 8t-59 21q-19 9 -26.5 22.5t-2.5 28.5q7 18 20.5 25t28.5 0q16 -7 46.5 -19.5t68.5 -12.5q52 0 89 20t57 58.5t20 95.5v71l12 -25q-16 -31 -43 -54t-62 -36t-77 -13
q-57 0 -96.5 24.5t-60 68t-20.5 100.5v302q0 17 11.5 28.5t28.5 11.5q18 0 29 -11.5t11 -28.5v-284q0 -68 30 -102.5t93 -34.5q40 0 72.5 18t52 49.5t19.5 69.5v284q0 17 11 28.5t29 11.5z" />
    <glyph glyph-name="z" unicode="z" horiz-adv-x="481" 
d="M402 74q16 0 27 -10.5t11 -26.5q0 -15 -11 -26t-27 -11h-324q-18 0 -28 13t-10 24q1 10 3 17t9 16l286 387l1 -11h-242q-16 0 -27 11t-11 27q0 15 11 25.5t27 10.5h307q16 0 26.5 -11.5t10.5 -28.5q-1 -7 -3 -13.5t-8 -15.5l-283 -382l-7 5h262z" />
    <glyph glyph-name="braceleft" unicode="{" horiz-adv-x="419" 
d="M357 -201q-3 0 -5.5 0.5t-5.5 0.5q-76 17 -116.5 43.5t-55.5 65t-15 86.5l1 91q0 38 -11 68t-34 47.5t-59 17.5h-5q-14 0 -23.5 9.5t-9.5 23.5t9.5 23t23.5 9h6q37 1 59.5 18.5t33 47.5t10.5 68l-1 90q0 44 12 76t35 54t57.5 38t81.5 27q23 5 32 -6t9 -23q0 -10 -6.5 -18
t-18.5 -11q-53 -17 -80 -36t-36.5 -45.5t-9.5 -66.5l1 -90q0 -61 -26 -102t-73 -54l-1 2q49 -14 74.5 -54.5t25.5 -102.5l-1 -89q0 -40 9 -66.5t36.5 -45.5t80.5 -36q26 -9 25 -33q-1 -10 -9 -18.5t-20 -8.5z" />
    <glyph glyph-name="bar" unicode="|" horiz-adv-x="219" 
d="M150 -122q0 -17 -11.5 -28.5t-29.5 -11.5q-17 0 -28 11.5t-11 28.5v872q0 17 11.5 29t28.5 12q18 0 29 -12t11 -29v-872z" />
    <glyph glyph-name="braceright" unicode="}" horiz-adv-x="419" 
d="M61 -200q-14 0 -21 11t-7 20q0 10 7 17.5t18 11.5q54 17 80.5 35.5t36 45.5t9.5 67l-1 89q0 62 26.5 103t72.5 54l1 -3q-48 15 -74 55.5t-26 101.5l1 90q0 40 -9 66.5t-36 45.5t-81 36q-26 9 -25 32q1 11 9 19t20 8h5.5t5.5 -1q77 -15 117 -42.5t55 -65.5t15 -87l-1 -90
q0 -39 11 -69t34 -47t59 -18h5q14 0 23.5 -9.5t9.5 -23.5q0 -13 -9.5 -22.5t-23.5 -9.5h-6q-37 0 -59.5 -17.5t-33 -47.5t-10.5 -68l1 -91q0 -36 -9 -64t-30 -50.5t-57 -41.5t-91 -39q-3 -1 -5.5 -1h-6.5z" />
    <glyph glyph-name="asciitilde" unicode="~" horiz-adv-x="489" 
d="M342 259q-21 0 -47.5 9t-55.5 20t-53.5 20t-40.5 9q-13 0 -21.5 -7.5t-10.5 -24.5q2 -14 -6.5 -22.5t-20.5 -8.5q-15 0 -25.5 12.5t-10.5 34.5q0 25 11 45.5t34 32.5t58 12q21 0 48 -9t54.5 -20t52 -20t40.5 -9q13 0 20.5 8.5t7.5 23.5q-3 15 5.5 24t21.5 9q14 0 25 -11
t11 -30q0 -46 -23.5 -72t-73.5 -26z" />
    <glyph glyph-name="uni00A0" unicode="&#xa0;" horiz-adv-x="275" 
 />
    <glyph glyph-name="exclamdown" unicode="&#xa1;" horiz-adv-x="213" 
d="M106 317q24 0 26 -27l17 -417q1 -22 -10 -37t-32 -15q-22 0 -33 15t-10 37l17 417q2 27 25 27zM111 521q21 0 32 -12t11 -33v-20q0 -21 -11 -33.5t-32 -12.5h-9q-21 0 -32 12.5t-11 33.5v20q0 21 11 33t32 12h9z" />
    <glyph glyph-name="cent" unicode="&#xa2;" horiz-adv-x="514" 
d="M328 41q0 -17 -11.5 -29t-29.5 -12q-17 0 -28 12t-11 29v64l5 31v432l-5 34v60q0 17 11.5 29t28.5 12q18 0 29 -12t11 -29v-59l-5 -28v-445l5 -27v-62zM295 80q-76 0 -133 35.5t-88.5 97t-31.5 137.5t32.5 137t90.5 97t134 36q51 0 92 -11t65 -30t24 -43q0 -13 -9 -25.5
t-27 -12.5q-12 0 -20 4.5t-15.5 12.5t-19.5 16q-15 13 -37.5 17t-55.5 4q-49 0 -88.5 -26t-62.5 -71.5t-23 -104.5t22.5 -104.5t63 -72t91.5 -26.5q39 0 60 7.5t36 19.5q16 11 26 21t27 10t26 -11.5t9 -27.5q0 -18 -25 -38t-67.5 -34t-95.5 -14z" />
    <glyph glyph-name="sterling" unicode="&#xa3;" horiz-adv-x="618" 
d="M77 327q-16 0 -27 10.5t-11 26.5q0 15 11 25t27 10h340q16 0 27 -11t11 -26q0 -16 -11 -25.5t-27 -9.5h-340zM227 97q41 0 83.5 -11t83 -22.5t75.5 -11.5q24 0 44 7t34 16q8 7 16 9.5t14 2.5q18 0 26 -11.5t8 -24.5q0 -18 -12 -30t-34 -20q-22 -12 -48.5 -17.5
t-47.5 -5.5q-28 1 -61.5 8t-67.5 16t-66 15.5t-57 6.5q-20 1 -41.5 -3t-38.5 -8t-26 -7q-16 -3 -27 -9.5t-22 -6.5q-13 0 -22 10t-9 24t9 25.5t26 17.5q29 9 55.5 15.5t53 10.5t52.5 4zM175 40l-60 19q13 7 25.5 25t21.5 45t9 61q0 38 -8.5 74t-20 71t-20 72t-8.5 76
q0 68 27 119t77 79.5t118 28.5q49 0 94 -15t75 -43q15 -11 24 -23t9 -23q0 -16 -12.5 -28.5t-29.5 -12.5q-8 0 -15.5 3t-12.5 8q-23 27 -56.5 42t-74.5 15q-44 0 -75.5 -20t-48 -54t-16.5 -77q0 -36 8.5 -72.5t20 -71.5t20 -68.5t8.5 -63.5q0 -38 -11.5 -69.5t-30 -55.5
t-37.5 -41z" />
    <glyph glyph-name="currency" unicode="&#xa4;" horiz-adv-x="522" 
d="M98 498q15 0 28 -13l65 -62q-7 -7 -17.5 -18t-21 -21.5t-17.5 -18.5l-64 62q-14 14 -14 28q0 10 6 19.5t16 16.5t19 7zM421 497q10 0 19.5 -6t16 -15.5t6.5 -19.5q0 -14 -14 -28l-65 -62q-7 8 -17 18.5l-20 21t-17 17.5l63 61q13 13 28 13zM421 105q-14 0 -28 14l-62 59
q7 8 17.5 18.5t21 21.5t17.5 18l62 -61q13 -13 13 -27q0 -9 -6 -19.5t-15.5 -17t-19.5 -6.5zM98 106q-9 0 -18.5 6.5t-16.5 16t-7 18.5q0 14 15 29l66 64l17.5 -17.5t21 -21.5t17.5 -18l-67 -64q-13 -13 -28 -13zM261 129q-47 0 -85.5 23t-61 62.5t-22.5 86.5q0 48 22.5 87
t61 62.5t85.5 23.5t85.5 -23.5t61.5 -62.5t23 -87q0 -47 -23 -86.5t-61.5 -62.5t-85.5 -23zM261 199q28 0 48.5 13.5t32 37t11.5 51.5q0 29 -11.5 52t-32 36.5t-48.5 13.5q-26 0 -47 -13.5t-33 -36.5t-12 -52q0 -28 12 -51.5t33 -37t47 -13.5z" />
    <glyph glyph-name="yen" unicode="&#xa5;" horiz-adv-x="572" 
d="M131 141q-18 0 -29.5 10.5t-11.5 25.5q0 16 11.5 26t29.5 10l324 -2q18 0 29.5 -10t11.5 -26q0 -15 -11.5 -25.5t-29.5 -10.5zM130 278q-18 0 -29.5 10.5t-11.5 25.5q0 16 11.5 26t29.5 10l324 -2q18 0 29.5 -10t11.5 -26q0 -15 -11.5 -25.5t-29.5 -10.5zM514 704
q17 0 28.5 -12.5t11.5 -28.5q0 -6 -1.5 -12.5t-5.5 -12.5l-229 -323l14 49v-323q0 -17 -12 -29t-31 -12t-31 12t-12 29v315l6 -26l-222 304q-6 8 -8.5 15.5t-2.5 14.5q0 11 7 20.5t18 14.5t20 5q21 0 33 -19l205 -296l-19 3l198 292q6 10 15 15t18 5z" />
    <glyph glyph-name="brokenbar" unicode="&#xa6;" horiz-adv-x="225" 
d="M153 429q0 -17 -11.5 -29t-29.5 -12q-17 0 -28 12t-11 29v321q0 17 11.5 29t28.5 12q18 0 29 -12t11 -29v-321zM152 -122q0 -17 -11.5 -28.5t-28.5 -11.5t-28.5 11.5t-11.5 28.5v322q0 17 11.5 28.5t29.5 11.5q17 0 28 -11.5t11 -28.5v-322z" />
    <glyph glyph-name="section" unicode="&#xa7;" horiz-adv-x="542" 
d="M502 279q-3 -65 -51 -101.5t-137 -43.5l45 43q54 -30 80.5 -60t26.5 -81q0 -30 -11.5 -60.5t-35.5 -56.5t-61 -42t-90 -16q-42 0 -83.5 11t-75 29t-52.5 37q-8 9 -13 20t-4 24q1 15 12 25t26 10q6 0 14.5 -2t17.5 -12q14 -15 34.5 -30.5t50.5 -26t72 -10.5q17 0 37.5 3.5
t39 12.5t30 26t11.5 45q0 26 -21.5 45t-59.5 33.5t-87 27.5q-78 20 -121 59t-43 103q0 18 7 41.5t23.5 46.5t46 39.5t75.5 20.5l-9 -35q-53 22 -75.5 57t-22.5 76q0 47 19.5 80.5t50.5 54.5t65.5 30t65.5 8q54 -2 94 -22.5t68 -52.5q8 -8 8 -23t-10 -27t-31 -11q-7 0 -13 5
q-24 23 -55 37.5t-69 14.5q-29 0 -54.5 -9t-41.5 -27.5t-16 -47.5q0 -26 16 -44.5t39.5 -30.5t47.5 -19t42 -11q88 -22 134 -60.5t44 -102.5zM238 210l84 -19q30 -1 52 10t34.5 29.5t12.5 39.5q0 31 -21.5 49t-65.5 32l-98 24q-24 3 -46 -6t-36 -27.5t-14 -43.5t21 -47
t77 -41z" />
    <glyph glyph-name="dieresis" unicode="&#xa8;" horiz-adv-x="407" 
d="M293 600q-23 0 -35 11t-12 32v13q0 23 13 33t36 10t35 -10.5t12 -32.5v-13q0 -23 -12 -33t-37 -10zM112 600q-23 0 -35 11t-12 32v13q0 22 12.5 32.5t35.5 10.5q24 0 36 -10t12 -33v-13q0 -23 -12 -33t-37 -10z" />
    <glyph glyph-name="copyright" unicode="&#xa9;" horiz-adv-x="790" 
d="M395 -5q-73 0 -137.5 27t-113.5 75t-76.5 113t-27.5 140q0 76 27.5 140.5t76.5 112.5t113.5 75t137.5 27t137.5 -27t113.5 -75t76.5 -112.5t27.5 -140.5q0 -75 -27.5 -140t-76.5 -113t-113.5 -75t-137.5 -27zM395 51q62 0 116 22.5t95 63t64 95t23 118.5t-23 118.5
t-64 95t-95 63t-116 22.5q-61 0 -115 -22.5t-95 -63t-64.5 -95t-23.5 -118.5t23 -118.5t64.5 -95t95.5 -63t115 -22.5zM413 147q-58 0 -105.5 26t-75.5 71.5t-28 105.5q0 56 27 102t74 73.5t108 27.5t110 -30q13 -7 15 -22t-6 -26q-7 -10 -19 -11.5t-23 4.5q-17 10 -36 15.5
t-41 5.5q-43 0 -75.5 -18.5t-50.5 -50t-18 -70.5q0 -41 18.5 -72.5t51 -49t74.5 -17.5q21 0 40.5 6t37.5 15q10 6 22 4t19 -12q9 -11 6.5 -25.5t-15.5 -22.5q-24 -14 -52.5 -21.5t-57.5 -7.5z" />
    <glyph glyph-name="ordfeminine" unicode="&#xaa;" horiz-adv-x="352" 
d="M144 391q-42 0 -70 23t-42 61.5t-14 84.5q0 44 17 80t48 57t72 21q48 0 77.5 -32t29.5 -96l-15 51v38q0 12 9.5 21t25.5 9t25.5 -9t9.5 -21v-248q0 -13 -10.5 -21.5t-24.5 -8.5q-16 0 -25.5 9t-9.5 21v43l15 36q0 -25 -15 -52.5t-41.5 -47t-61.5 -19.5zM167 449
q35 0 59.5 28t24.5 78q0 49 -22 77t-60 28q-33 0 -57 -29t-24 -71q0 -45 19 -78t60 -33z" />
    <glyph glyph-name="guillemotleft" unicode="&#xab;" horiz-adv-x="465" 
d="M390 50q-17 0 -28 15l-127 172q-7 11 -7 23t7 22l128 171q11 15 28 15q13 0 24.5 -9t11.5 -25q0 -13 -10 -26l-113 -155l-2 16l117 -157q4 -6 6.5 -12t2.5 -12q0 -19 -13 -28.5t-25 -9.5zM183 50q-17 0 -28 15l-127 172q-7 11 -7 23t7 22l128 171q11 15 28 15
q13 0 24.5 -9t11.5 -25q0 -13 -10 -26l-113 -155l-2 16l117 -157q4 -6 6.5 -12t2.5 -12q0 -19 -13 -28.5t-25 -9.5z" />
    <glyph glyph-name="logicalnot" unicode="&#xac;" horiz-adv-x="661" 
d="M568 143q-18 0 -30.5 11.5t-12.5 29.5v169l18 -11h-456q-16 0 -26.5 11.5t-10.5 29.5q0 17 10.5 28t26.5 11h486q17 0 27.5 -10.5t10.5 -27.5v-199q0 -19 -12 -30.5t-31 -11.5z" />
    <glyph glyph-name="uni00AD" unicode="&#xad;" horiz-adv-x="392" 
d="M95 271q-17 0 -28.5 11.5t-11.5 29.5q0 17 11.5 28t28.5 11h202q17 0 28.5 -12t11.5 -29t-11.5 -28t-28.5 -11h-202z" />
    <glyph glyph-name="registered" unicode="&#xae;" horiz-adv-x="519" 
d="M199 363q-9 0 -16 6.5t-7 15.5v199q0 7 5.5 12.5t12.5 5.5h77q35 0 56.5 -18t21.5 -52q0 -22 -15 -37.5t-38 -21.5l-1 6q15 -5 26.5 -19.5t12.5 -33.5q0 -14 2.5 -21t8.5 -10q7 -4 8 -10.5t-2 -10.5q-4 -8 -13 -10t-19 0t-19.5 16t-9.5 42q0 15 -7.5 25t-26.5 10h-44
l9 10v-82q0 -9 -6.5 -15.5t-15.5 -6.5zM263 497q18 0 30.5 8.5t12.5 24.5t-11 23t-29 7h-57l12 9v-79l-8 7h50zM260 259q-62 0 -113 29.5t-81.5 80.5t-30.5 115q0 63 30.5 114t81.5 80.5t113 29.5t112.5 -29.5t81 -80.5t30.5 -114q0 -64 -30.5 -115t-81 -80.5t-112.5 -29.5z
M260 307q49 0 88 23t62.5 63t23.5 91t-23.5 90.5t-62.5 62.5t-88 23t-89 -23t-63.5 -62.5t-23.5 -90.5t23.5 -91t63.5 -63t89 -23z" />
    <glyph glyph-name="macron" unicode="&#xaf;" horiz-adv-x="411" 
d="M85 583q-35 0 -35 33q0 32 35 32h241q35 0 35 -32q0 -33 -35 -33h-241z" />
    <glyph glyph-name="degree" unicode="&#xb0;" horiz-adv-x="353" 
d="M176 409q-42 0 -75.5 20.5t-53 54.5t-19.5 74q0 41 19.5 75t53 54.5t75.5 20.5q44 0 77.5 -20.5t52.5 -54t19 -74.5q0 -40 -19.5 -74.5t-53 -55t-76.5 -20.5zM176 468q37 0 60.5 27.5t23.5 63.5q0 35 -23.5 62.5t-60.5 27.5q-36 0 -59.5 -27t-23.5 -64q0 -35 23.5 -62.5
t59.5 -27.5z" />
    <glyph glyph-name="plusminus" unicode="&#xb1;" horiz-adv-x="541" 
d="M87 385q-16 0 -27 11t-11 27t11 26.5t27 10.5h375q16 0 27 -11t11 -27t-11 -26.5t-27 -10.5h-375zM276 239q-19 0 -31 12t-12 31v292q0 19 12.5 31t30.5 12q20 0 31.5 -12t11.5 -30v-293q0 -19 -12 -31t-31 -12zM84 105q-17 0 -28 11t-11 27t11 27t28 11h374
q16 0 27 -10.5t11 -28.5q0 -17 -11 -27t-27 -10h-374z" />
    <glyph glyph-name="uni00B2" unicode="&#xb2;" horiz-adv-x="333" 
d="M83 451q-14 0 -23.5 9t-9.5 24q0 8 4 14.5t11 14.5l79 82q23 26 43.5 50.5t20.5 50.5q0 18 -11.5 29t-33.5 11q-16 0 -31 -9.5t-22 -26.5q-4 -7 -10.5 -11t-14.5 -4q-15 0 -23.5 8.5t-8.5 19.5q0 17 16 36.5t42.5 33.5t59.5 14q37 0 61 -15t35.5 -37.5t11.5 -46.5
q0 -26 -12 -48t-29 -41t-35 -39l-68 -70l-5 9h122q13 0 22 -8t9 -21q0 -12 -9 -20.5t-22 -8.5h-169z" />
    <glyph glyph-name="uni00B3" unicode="&#xb3;" horiz-adv-x="327" 
d="M158 444q-27 0 -50.5 6.5t-39.5 17.5q-15 10 -15 28q0 12 8 21.5t21 9.5q6 0 10 -2t12 -7q6 -4 19 -10t30 -6q26 0 46.5 15t20.5 42q0 23 -16.5 35t-41.5 12q-13 0 -25.5 -4.5t-27.5 -6.5q-12 -1 -20.5 7.5t-8.5 19.5q0 6 1.5 12.5t6.5 10.5l104 93l14 -8h-116
q-13 0 -22 9t-9 21q0 13 9 21t22 8h148q14 0 23 -8.5t10 -22.5q1 -15 -9 -25l-98 -86l-17 3q3 3 13.5 6t17.5 3q33 0 57 -11.5t37 -34t13 -53.5q0 -36 -18.5 -62t-47.5 -40t-61 -14z" />
    <glyph glyph-name="acute" unicode="&#xb4;" horiz-adv-x="275" 
d="M91 573q-7 0 -14.5 6t-7.5 16q0 7 6 16l60 98q6 10 16 19t24 9q20 0 30 -10.5t10 -27.5q-1 -8 -4 -15t-9 -15l-76 -80q-7 -8 -16.5 -12t-18.5 -4z" />
    <glyph glyph-name="uni00B5" unicode="&#xb5;" horiz-adv-x="571" 
d="M121 -155q-19 0 -29.5 11t-10.5 29l-1 590q0 17 11.5 28.5t28.5 11.5q18 0 29 -11.5t11 -28.5v-264q0 -40 11 -73t36.5 -53t67.5 -20q31 0 57 12t46.5 32.5t31.5 47t11 54.5v264q0 17 11.5 28.5t28.5 11.5q18 0 29 -11.5t11 -28.5v-434q0 -17 -11.5 -29t-28.5 -12
t-28.5 12t-11.5 29v61l2 -8q-7 -20 -29 -44t-55 -42t-75 -18q-21 0 -45 9t-43 26t-26 42l10 3v-185q0 -18 -10 -29t-29 -11z" />
    <glyph glyph-name="paragraph" unicode="&#xb6;" horiz-adv-x="626" 
d="M504 0q-11 0 -22 8.5t-11 26.5v628l17 -20h-113l14 15v-595q0 -40 -16.5 -67.5t-44.5 -42t-63 -14.5q-27 0 -49.5 8.5t-30.5 20.5q-7 8 -8 20t9 21q7 8 17 8.5t18 -3.5q10 -4 20 -7.5t21 -3.5q28 0 45 19t17 52v233l21 -32h-64q-84 1 -137 22.5t-77 68.5t-24 121
q0 79 27.5 125.5t87.5 67t155 20.5h193q13 0 21.5 -8.5t8.5 -21.5v-635q0 -18 -10 -26.5t-22 -8.5z" />
    <glyph glyph-name="periodcentered" unicode="&#xb7;" horiz-adv-x="204" 
d="M98 247q-21 0 -33.5 12t-12.5 33v20q0 22 12.5 34t33.5 12h8q22 0 34 -12t12 -34v-20q0 -21 -12 -33t-34 -12h-8z" />
    <glyph glyph-name="cedilla" unicode="&#xb8;" horiz-adv-x="272" 
d="M91 -146q-8 0 -20 4.5t-21 13t-9 19.5q0 12 8 22l84 107h50l-61 -142q-10 -24 -31 -24z" />
    <glyph glyph-name="uni00B9" unicode="&#xb9;" horiz-adv-x="255" 
d="M158 457q-14 0 -23 9.5t-9 23.5l-1 235l7 -13l-46 -29q-5 -3 -11 -5.5t-11 -2.5q-15 0 -23 11t-8 22q0 18 18 28l83 49q13 7 23 6q14 -1 23 -10.5t9 -25.5l1 -265q0 -14 -9 -23.5t-23 -9.5z" />
    <glyph glyph-name="ordmasculine" unicode="&#xba;" horiz-adv-x="349" 
d="M329 549q0 -45 -20 -80.5t-55.5 -56t-80.5 -20.5q-43 0 -78 20.5t-55 56t-20 80.5q0 46 20 82t55 57.5t78 21.5q45 0 80.5 -21.5t55.5 -57.5t20 -82zM263 549q0 43 -24 71.5t-65 28.5q-40 0 -63.5 -28.5t-23.5 -71.5q0 -40 23.5 -68t63.5 -28q41 0 65 28t24 68z" />
    <glyph glyph-name="guillemotright" unicode="&#xbb;" horiz-adv-x="464" 
d="M283 468q17 0 28 -15l126 -172q8 -10 8 -23q0 -11 -8 -21l-127 -172q-11 -15 -28 -15q-13 0 -25 9.5t-12 25.5q0 13 10 25l114 155l1 -15l-116 157q-5 6 -7 12t-2 12q0 19 13 28t25 9zM76 468q17 0 28 -15l126 -172q8 -10 8 -23q0 -11 -8 -21l-127 -172q-11 -15 -28 -15
q-13 0 -25 9.5t-12 25.5q0 13 10 25l114 155l1 -15l-116 157q-5 6 -7 12t-2 12q0 19 13 28t25 9z" />
    <glyph glyph-name="onequarter" unicode="&#xbc;" horiz-adv-x="734" 
d="M170 371q-14 0 -23 9.5t-9 23.5l-1 235l7 -13l-46 -29q-5 -3 -11 -5.5t-11 -2.5q-15 0 -23 11t-8 22q0 18 18 28l83 49q13 7 23 6q14 -1 23 -10.5t9 -25.5l1 -265q0 -14 -9 -23.5t-23 -9.5zM146 -2q-13 0 -24.5 9t-11.5 25q0 9 6 21l418 633q12 17 29 17q13 0 24.5 -9
t11.5 -25q0 -10 -7 -21l-418 -634q-12 -16 -28 -16zM598 -3q-13 0 -22.5 9t-9.5 23v247l24 -12l-119 -143l3 16h185q30 -1 30 -29q0 -29 -30 -29h-216q-15 0 -26 10t-11 25q0 6 2 12t6 11l150 186q7 8 16 11t15 3q16 0 25.5 -10t9.5 -25v-273q0 -14 -9 -23t-23 -9z" />
    <glyph glyph-name="onehalf" unicode="&#xbd;" horiz-adv-x="725" 
d="M170 371q-14 0 -23 9.5t-9 23.5l-1 235l7 -13l-46 -29q-5 -3 -11 -5.5t-11 -2.5q-15 0 -23 11t-8 22q0 18 18 28l83 49q13 7 23 6q14 -1 23 -10.5t9 -25.5l1 -265q0 -14 -9 -23.5t-23 -9.5zM132 -2q-13 0 -24.5 9t-11.5 25q0 9 6 21l418 633q12 17 29 17q13 0 24.5 -9
t11.5 -25q0 -10 -7 -21l-418 -634q-12 -16 -28 -16zM480 0q-14 0 -23.5 9t-9.5 24q0 8 4 14.5t11 14.5l79 82q23 26 43.5 50.5t20.5 50.5q0 18 -11.5 29t-33.5 11q-16 0 -31 -9.5t-22 -26.5q-4 -7 -10.5 -11t-14.5 -4q-15 0 -23.5 8.5t-8.5 19.5q0 17 16 36.5t42.5 33.5
t59.5 14q37 0 61 -15t35.5 -37.5t11.5 -46.5q0 -26 -12 -48t-29 -41t-35 -39l-68 -70l-5 9h122q13 0 22 -8t9 -21q0 -12 -9 -20.5t-22 -8.5h-169z" />
    <glyph glyph-name="threequarters" unicode="&#xbe;" horiz-adv-x="773" 
d="M156 358q-27 0 -50.5 6.5t-39.5 17.5q-15 10 -15 28q0 12 8 21.5t21 9.5q6 0 10 -2t12 -7q6 -4 19 -10t30 -6q26 0 46.5 15t20.5 42q0 23 -16.5 35t-41.5 12q-13 0 -25.5 -4.5t-27.5 -6.5q-12 -1 -20.5 7.5t-8.5 19.5q0 6 1.5 12.5t6.5 10.5l104 93l14 -8h-116
q-13 0 -22 9t-9 21q0 13 9 21t22 8h148q14 0 23 -8.5t10 -22.5q1 -15 -9 -25l-98 -86l-17 3q3 3 13.5 6t17.5 3q33 0 57 -11.5t37 -34t13 -53.5q0 -36 -18.5 -62t-47.5 -40t-61 -14zM174 -2q-13 0 -24.5 9t-11.5 25q0 9 6 21l418 633q12 17 29 17q13 0 24.5 -9t11.5 -25
q0 -10 -7 -21l-418 -634q-12 -16 -28 -16zM637 -3q-13 0 -22.5 9t-9.5 23v247l24 -12l-119 -143l3 16h185q30 -1 30 -29q0 -29 -30 -29h-216q-15 0 -26 10t-11 25q0 6 2 12t6 11l150 186q7 8 16 11t15 3q16 0 25.5 -10t9.5 -25v-273q0 -14 -9 -23t-23 -9z" />
    <glyph glyph-name="questiondown" unicode="&#xbf;" horiz-adv-x="493" 
d="M316 212q0 -17 -11.5 -29t-28.5 -12q-43 -1 -78.5 -19t-56 -50t-20.5 -77q0 -42 18.5 -74t50.5 -50t71 -18q37 0 69.5 16t54.5 42q10 10 25 14.5t30 -6.5q16 -11 18 -27.5t-11 -31.5q-33 -39 -81.5 -62.5t-104.5 -23.5q-61 0 -111.5 28t-80 77.5t-29.5 115.5
q0 43 15.5 80.5t43.5 66t64.5 45.5t79.5 20q3 1 0 0.5t-6 -3.5v83q0 17 11.5 28.5t28.5 11.5t28.5 -11.5t10.5 -28.5v-105zM278 541q22 0 33 -12t11 -33v-20q0 -21 -11 -33.5t-33 -12.5h-8q-21 0 -32.5 12.5t-11.5 33.5v20q0 21 11.5 33t32.5 12h8z" />
    <glyph glyph-name="Agrave" unicode="&#xc0;" horiz-adv-x="644" 
d="M330 596l-235 -572q-4 -12 -14 -19t-21 -7q-19 0 -28 10t-9 24q-1 7 2 15l259 630q5 14 15.5 20.5t23.5 5.5q13 0 23.5 -7t14.5 -19l258 -624q3 -8 3 -16q0 -18 -12 -28.5t-27 -10.5q-12 0 -22 7t-15 20l-238 572zM145 187l34 78h297l15 -78h-346zM323 745q-6 0 -11.5 2
t-10.5 5l-99 50q-25 14 -25 38q0 16 11.5 26.5t26.5 10.5q10 0 19 -4.5t16 -10.5l88 -72q6 -5 9 -10t3 -11q0 -10 -7 -17t-20 -7z" />
    <glyph glyph-name="Aacute" unicode="&#xc1;" horiz-adv-x="644" 
d="M330 596l-235 -572q-4 -12 -14 -19t-21 -7q-19 0 -28 10t-9 24q-1 7 2 15l259 630q5 14 15.5 20.5t23.5 5.5q13 0 23.5 -7t14.5 -19l258 -624q3 -8 3 -16q0 -18 -12 -28.5t-27 -10.5q-12 0 -22 7t-15 20l-238 572zM145 187l34 78h297l15 -78h-346zM327 743q-13 0 -20 7
t-7 17q0 6 3 11t8 10l88 72q8 6 17 10.5t19 4.5q14 0 26 -10.5t12 -26.5q0 -12 -6.5 -22t-19.5 -16l-98 -50q-5 -3 -11 -5t-11 -2z" />
    <glyph glyph-name="Acircumflex" unicode="&#xc2;" horiz-adv-x="644" 
d="M330 596l-235 -572q-4 -12 -14 -19t-21 -7q-19 0 -28 10t-9 24q-1 7 2 15l259 630q5 14 15.5 20.5t23.5 5.5q13 0 23.5 -7t14.5 -19l258 -624q3 -8 3 -16q0 -18 -12 -28.5t-27 -10.5q-12 0 -22 7t-15 20l-238 572zM145 187l34 78h297l15 -78h-346zM335 833l-87 -63
q-11 -7 -19 -11.5t-16 -4.5q-9 0 -15 6t-6 13q0 5 2 9.5t8 11.5l72 79q10 10 19.5 15t23.5 5h13q14 0 23.5 -5t18.5 -15l72 -79q6 -6 8.5 -10.5t2.5 -10.5t-6 -12t-16 -6q-7 0 -15.5 4.5t-19.5 11.5l-87 60z" />
    <glyph glyph-name="Atilde" unicode="&#xc3;" horiz-adv-x="644" 
d="M330 596l-235 -572q-4 -12 -14 -19t-21 -7q-19 0 -28 10t-9 24q-1 7 2 15l259 630q5 14 15.5 20.5t23.5 5.5q13 0 23.5 -7t14.5 -19l258 -624q3 -8 3 -16q0 -18 -12 -28.5t-27 -10.5q-12 0 -22 7t-15 20l-238 572zM145 187l34 78h297l15 -78h-346zM193 759
q-16 0 -25.5 14.5t-7.5 38.5q4 33 30 54t65 21q27 0 53.5 -15t50.5 -30t41 -15q13 0 21 9t8 24q-3 16 5 25t21 9q18 0 27 -14.5t8 -37.5q-3 -20 -13.5 -38t-29 -28.5t-43.5 -10.5q-28 0 -56.5 14.5t-53 29t-42.5 14.5q-12 0 -21 -8t-11 -24q2 -15 -6.5 -23.5t-20.5 -8.5z
" />
    <glyph glyph-name="Adieresis" unicode="&#xc4;" horiz-adv-x="644" 
d="M330 596l-235 -572q-4 -12 -14 -19t-21 -7q-19 0 -28 10t-9 24q-1 7 2 15l259 630q5 14 15.5 20.5t23.5 5.5q13 0 23.5 -7t14.5 -19l258 -624q3 -8 3 -16q0 -18 -12 -28.5t-27 -10.5q-12 0 -22 7t-15 20l-238 572zM145 187l34 78h297l15 -78h-346zM414 770
q-24 0 -36 10.5t-12 32.5v13q0 23 12.5 33t35.5 10q24 0 36 -10.5t12 -32.5v-13q0 -22 -12 -32.5t-36 -10.5zM233 770q-24 0 -36 10.5t-12 32.5v13q0 23 13 33t36 10t35 -10.5t12 -32.5v-13q0 -22 -12 -32.5t-36 -10.5z" />
    <glyph glyph-name="Aring" unicode="&#xc5;" horiz-adv-x="646" 
d="M324 653q-28 0 -52.5 14t-39 37t-14.5 51t14.5 51.5t39 37t52.5 13.5t52 -13.5t39 -37t15 -51.5t-15 -51t-39 -37t-52 -14zM324 704q22 0 37.5 15t15.5 36q0 23 -16 37t-37 14q-22 0 -37.5 -14t-15.5 -37q0 -21 15.5 -36t37.5 -15zM330 596l-235 -572q-4 -12 -14 -19
t-21 -7q-19 0 -28 10t-9 24q-1 7 2 15l259 630q5 14 15.5 20.5t23.5 5.5q13 0 23.5 -7t14.5 -19l258 -624q3 -8 3 -16q0 -18 -12 -28.5t-27 -10.5q-12 0 -22 7t-15 20l-238 572zM145 187l34 78h297l15 -78h-346z" />
    <glyph glyph-name="AE" unicode="&#xc6;" horiz-adv-x="908" 
d="M183 237h275l-17 -27v375l17 -14l-384 -557q-12 -17 -30 -17q-13 0 -24.5 10t-12.5 27q-1 14 8 26l435 623q7 10 16.5 13.5t20.5 3.5h335q17 0 29 -11t12 -28t-12 -27.5t-29 -10.5h-307l8 9v-251l-7 15h261q17 0 29 -11.5t12 -28.5t-12 -27.5t-29 -10.5h-263l9 12v-270
l-8 18h307q17 0 29 -12t12 -27q0 -17 -12 -28t-29 -11h-341q-17 0 -28.5 12t-11.5 29v133l21 -14h-328z" />
    <glyph glyph-name="Ccedilla" unicode="&#xc7;" horiz-adv-x="645" 
d="M592 654q17 -9 19.5 -27t-9.5 -33q-9 -13 -23 -14t-28 6q-33 20 -71 31.5t-80 11.5q-59 0 -108 -20.5t-85 -57.5t-56 -88t-20 -113q0 -66 21 -118t57.5 -88.5t85 -55.5t105.5 -19q41 0 79 11t72 32q14 7 28 5t24 -14q12 -16 9 -33.5t-19 -25.5q-25 -15 -57 -27.5
t-66.5 -19.5t-69.5 -7q-72 0 -136 25t-113 72t-77.5 113.5t-28.5 149.5q0 78 27 143t75.5 113t113 75t139.5 27q52 0 101.5 -14t90.5 -40zM336 -146q-8 0 -20 4.5t-21 13t-9 19.5q0 12 8 22l84 107h50l-61 -142q-10 -24 -31 -24z" />
    <glyph glyph-name="Egrave" unicode="&#xc8;" horiz-adv-x="570" 
d="M128 700h356q17 0 29 -11t12 -28t-12 -27.5t-29 -10.5h-322l9 17v-253l-10 11h278q17 0 29 -11t12 -28t-12 -27.5t-29 -10.5h-275l7 9v-259l-6 7h319q17 0 29 -12t12 -27q0 -17 -12 -28t-29 -11h-356q-17 0 -28.5 12t-11.5 29v619q0 17 11.5 28.5t28.5 11.5zM314 745
q-6 0 -11.5 2t-10.5 5l-99 50q-25 14 -25 38q0 16 11.5 26.5t26.5 10.5q10 0 19 -4.5t16 -10.5l88 -72q6 -5 9 -10t3 -11q0 -10 -7 -17t-20 -7z" />
    <glyph glyph-name="Eacute" unicode="&#xc9;" horiz-adv-x="570" 
d="M128 700h356q17 0 29 -11t12 -28t-12 -27.5t-29 -10.5h-322l9 17v-253l-10 11h278q17 0 29 -11t12 -28t-12 -27.5t-29 -10.5h-275l7 9v-259l-6 7h319q17 0 29 -12t12 -27q0 -17 -12 -28t-29 -11h-356q-17 0 -28.5 12t-11.5 29v619q0 17 11.5 28.5t28.5 11.5zM317 743
q-13 0 -20 7t-7 17q0 6 3 11t8 10l88 72q8 6 17 10.5t19 4.5q14 0 26 -10.5t12 -26.5q0 -12 -6.5 -22t-19.5 -16l-98 -50q-5 -3 -11 -5t-11 -2z" />
    <glyph glyph-name="Ecircumflex" unicode="&#xca;" horiz-adv-x="570" 
d="M128 700h356q17 0 29 -11t12 -28t-12 -27.5t-29 -10.5h-322l9 17v-253l-10 11h278q17 0 29 -11t12 -28t-12 -27.5t-29 -10.5h-275l7 9v-259l-6 7h319q17 0 29 -12t12 -27q0 -17 -12 -28t-29 -11h-356q-17 0 -28.5 12t-11.5 29v619q0 17 11.5 28.5t28.5 11.5zM325 833
l-87 -63q-11 -7 -19 -11.5t-16 -4.5q-9 0 -15 6t-6 13q0 5 2 9.5t8 11.5l72 79q10 10 19.5 15t23.5 5h13q14 0 23.5 -5t18.5 -15l72 -79q6 -6 8.5 -10.5t2.5 -10.5t-6 -12t-16 -6q-7 0 -15.5 4.5t-19.5 11.5l-87 60z" />
    <glyph glyph-name="Edieresis" unicode="&#xcb;" horiz-adv-x="570" 
d="M128 700h356q17 0 29 -11t12 -28t-12 -27.5t-29 -10.5h-322l9 17v-253l-10 11h278q17 0 29 -11t12 -28t-12 -27.5t-29 -10.5h-275l7 9v-259l-6 7h319q17 0 29 -12t12 -27q0 -17 -12 -28t-29 -11h-356q-17 0 -28.5 12t-11.5 29v619q0 17 11.5 28.5t28.5 11.5zM405 770
q-24 0 -36 10.5t-12 32.5v13q0 23 12.5 33t35.5 10q24 0 36 -10.5t12 -32.5v-13q0 -22 -12 -32.5t-36 -10.5zM224 770q-24 0 -36 10.5t-12 32.5v13q0 23 13 33t36 10t35 -10.5t12 -32.5v-13q0 -22 -12 -32.5t-36 -10.5z" />
    <glyph glyph-name="Igrave" unicode="&#xcc;" horiz-adv-x="259" 
d="M171 41q0 -17 -12.5 -29t-29.5 -12q-19 0 -30 12t-11 29v618q0 18 12 29.5t30 11.5q17 0 29 -11.5t12 -29.5v-618zM130 745q-6 0 -11.5 2t-10.5 5l-99 50q-25 14 -25 38q0 16 11.5 26.5t26.5 10.5q10 0 19 -4.5t16 -10.5l88 -72q6 -5 9 -10t3 -11q0 -10 -7 -17t-20 -7z
" />
    <glyph glyph-name="Iacute" unicode="&#xcd;" horiz-adv-x="259" 
d="M171 41q0 -17 -12.5 -29t-29.5 -12q-19 0 -30 12t-11 29v618q0 18 12 29.5t30 11.5q17 0 29 -11.5t12 -29.5v-618zM134 743q-13 0 -20 7t-7 17q0 6 3 11t8 10l88 72q8 6 17 10.5t19 4.5q14 0 26 -10.5t12 -26.5q0 -12 -6.5 -22t-19.5 -16l-98 -50q-5 -3 -11 -5t-11 -2z
" />
    <glyph glyph-name="Icircumflex" unicode="&#xce;" horiz-adv-x="259" 
d="M171 41q0 -17 -12.5 -29t-29.5 -12q-19 0 -30 12t-11 29v618q0 18 12 29.5t30 11.5q17 0 29 -11.5t12 -29.5v-618zM142 833l-87 -63q-11 -7 -19 -11.5t-16 -4.5q-9 0 -15 6t-6 13q0 5 2 9.5t8 11.5l72 79q10 10 19.5 15t23.5 5h13q14 0 23.5 -5t18.5 -15l72 -79
q6 -6 8.5 -10.5t2.5 -10.5t-6 -12t-16 -6q-7 0 -15.5 4.5t-19.5 11.5l-87 60z" />
    <glyph glyph-name="Idieresis" unicode="&#xcf;" horiz-adv-x="259" 
d="M171 41q0 -17 -12.5 -29t-29.5 -12q-19 0 -30 12t-11 29v618q0 18 12 29.5t30 11.5q17 0 29 -11.5t12 -29.5v-618zM221 770q-24 0 -36 10.5t-12 32.5v13q0 23 12.5 33t35.5 10q24 0 36 -10.5t12 -32.5v-13q0 -22 -12 -32.5t-36 -10.5zM40 770q-24 0 -36 10.5t-12 32.5v13
q0 23 13 33t36 10t35 -10.5t12 -32.5v-13q0 -22 -12 -32.5t-36 -10.5z" />
    <glyph glyph-name="Eth" unicode="&#xd0;" horiz-adv-x="718" 
d="M378 700q73 0 128.5 -27.5t92.5 -76.5t55.5 -112.5t18.5 -133.5q0 -96 -33 -175.5t-98 -127t-164 -47.5h-250q-17 0 -28.5 12t-11.5 29v619q0 17 11.5 28.5t28.5 11.5h250zM368 78q77 0 125.5 37t71 99t22.5 136q0 54 -12.5 103.5t-39 87.5t-68 60t-99.5 22h-205l8 8
v-563l-6 10h203zM51 315q-18 0 -29.5 10t-11.5 27q0 16 11.5 26.5t29.5 10.5h167q18 0 29 -10.5t11 -26.5q0 -17 -11 -27t-29 -10h-167z" />
    <glyph glyph-name="Ntilde" unicode="&#xd1;" horiz-adv-x="730" 
d="M606 700q17 0 27 -10.5t10 -26.5v-621q0 -19 -12 -30.5t-29 -11.5q-9 0 -18 3.5t-14 9.5l-428 566l20 12v-554q0 -16 -10.5 -26.5t-27.5 -10.5q-16 0 -26 10.5t-10 26.5v623q0 18 11.5 29t27.5 11q9 0 18.5 -3.5t14.5 -10.5l422 -558l-13 -16v551q0 16 10.5 26.5
t26.5 10.5zM235 759q-16 0 -25.5 14.5t-7.5 38.5q4 33 30 54t65 21q27 0 53.5 -15t50.5 -30t41 -15q13 0 21 9t8 24q-3 16 5 25t21 9q18 0 27 -14.5t8 -37.5q-3 -20 -13.5 -38t-29 -28.5t-43.5 -10.5q-28 0 -56.5 14.5t-53 29t-42.5 14.5q-12 0 -21 -8t-11 -24
q2 -15 -6.5 -23.5t-20.5 -8.5z" />
    <glyph glyph-name="Ograve" unicode="&#xd2;" horiz-adv-x="764" 
d="M719 350q0 -77 -25 -142.5t-70 -114.5t-107 -76t-135 -27q-74 0 -135.5 27t-106.5 76t-70 114.5t-25 142.5q0 78 25 143.5t70 114t106.5 75.5t135.5 27q73 0 135 -27t107 -75.5t70 -114t25 -143.5zM633 350q0 82 -32.5 145t-88.5 99t-130 36t-130.5 -36t-88.5 -99
t-32 -145q0 -81 32 -144.5t88.5 -99.5t130.5 -36t130 36t88.5 99.5t32.5 144.5zM382 745q-6 0 -11.5 2t-10.5 5l-99 50q-25 14 -25 38q0 16 11.5 26.5t26.5 10.5q10 0 19 -4.5t16 -10.5l88 -72q6 -5 9 -10t3 -11q0 -10 -7 -17t-20 -7z" />
    <glyph glyph-name="Oacute" unicode="&#xd3;" horiz-adv-x="764" 
d="M719 350q0 -77 -25 -142.5t-70 -114.5t-107 -76t-135 -27q-74 0 -135.5 27t-106.5 76t-70 114.5t-25 142.5q0 78 25 143.5t70 114t106.5 75.5t135.5 27q73 0 135 -27t107 -75.5t70 -114t25 -143.5zM633 350q0 82 -32.5 145t-88.5 99t-130 36t-130.5 -36t-88.5 -99
t-32 -145q0 -81 32 -144.5t88.5 -99.5t130.5 -36t130 36t88.5 99.5t32.5 144.5zM385 743q-13 0 -20 7t-7 17q0 6 3 11t8 10l88 72q8 6 17 10.5t19 4.5q14 0 26 -10.5t12 -26.5q0 -12 -6.5 -22t-19.5 -16l-98 -50q-5 -3 -11 -5t-11 -2z" />
    <glyph glyph-name="Ocircumflex" unicode="&#xd4;" horiz-adv-x="764" 
d="M719 350q0 -77 -25 -142.5t-70 -114.5t-107 -76t-135 -27q-74 0 -135.5 27t-106.5 76t-70 114.5t-25 142.5q0 78 25 143.5t70 114t106.5 75.5t135.5 27q73 0 135 -27t107 -75.5t70 -114t25 -143.5zM633 350q0 82 -32.5 145t-88.5 99t-130 36t-130.5 -36t-88.5 -99
t-32 -145q0 -81 32 -144.5t88.5 -99.5t130.5 -36t130 36t88.5 99.5t32.5 144.5zM393 833l-87 -63q-11 -7 -19 -11.5t-16 -4.5q-9 0 -15 6t-6 13q0 5 2 9.5t8 11.5l72 79q10 10 19.5 15t23.5 5h13q14 0 23.5 -5t18.5 -15l72 -79q6 -6 8.5 -10.5t2.5 -10.5t-6 -12t-16 -6
q-7 0 -15.5 4.5t-19.5 11.5l-87 60z" />
    <glyph glyph-name="Otilde" unicode="&#xd5;" horiz-adv-x="764" 
d="M719 350q0 -77 -25 -142.5t-70 -114.5t-107 -76t-135 -27q-74 0 -135.5 27t-106.5 76t-70 114.5t-25 142.5q0 78 25 143.5t70 114t106.5 75.5t135.5 27q73 0 135 -27t107 -75.5t70 -114t25 -143.5zM633 350q0 82 -32.5 145t-88.5 99t-130 36t-130.5 -36t-88.5 -99
t-32 -145q0 -81 32 -144.5t88.5 -99.5t130.5 -36t130 36t88.5 99.5t32.5 144.5zM251 759q-16 0 -25.5 14.5t-7.5 38.5q4 33 30 54t65 21q27 0 53.5 -15t50.5 -30t41 -15q13 0 21 9t8 24q-3 16 5 25t21 9q18 0 27 -14.5t8 -37.5q-3 -20 -13.5 -38t-29 -28.5t-43.5 -10.5
q-28 0 -56.5 14.5t-53 29t-42.5 14.5q-12 0 -21 -8t-11 -24q2 -15 -6.5 -23.5t-20.5 -8.5z" />
    <glyph glyph-name="Odieresis" unicode="&#xd6;" horiz-adv-x="764" 
d="M719 350q0 -77 -25 -142.5t-70 -114.5t-107 -76t-135 -27q-74 0 -135.5 27t-106.5 76t-70 114.5t-25 142.5q0 78 25 143.5t70 114t106.5 75.5t135.5 27q73 0 135 -27t107 -75.5t70 -114t25 -143.5zM633 350q0 82 -32.5 145t-88.5 99t-130 36t-130.5 -36t-88.5 -99
t-32 -145q0 -81 32 -144.5t88.5 -99.5t130.5 -36t130 36t88.5 99.5t32.5 144.5zM473 770q-24 0 -36 10.5t-12 32.5v13q0 23 12.5 33t35.5 10q24 0 36 -10.5t12 -32.5v-13q0 -22 -12 -32.5t-36 -10.5zM292 770q-24 0 -36 10.5t-12 32.5v13q0 23 13 33t36 10t35 -10.5
t12 -32.5v-13q0 -22 -12 -32.5t-36 -10.5z" />
    <glyph glyph-name="multiply" unicode="&#xd7;" horiz-adv-x="476" 
d="M88 141q-15 0 -26.5 11.5t-11.5 27.5q0 15 12 27l298 296q12 12 28 12t27 -12t11 -26t-12 -27l-298 -296q-13 -13 -28 -13zM358 153l-291 296q-11 12 -11 27q0 17 11.5 27.5t25.5 10.5q15 0 28 -12l290 -296q12 -11 12 -27q0 -18 -12.5 -28t-25.5 -10q-14 0 -27 12z" />
    <glyph glyph-name="Oslash" unicode="&#xd8;" horiz-adv-x="730" 
d="M97 -25q-13 0 -23.5 9.5t-10.5 23.5q0 12 9 23l565 688q7 9 14.5 12t15.5 3q13 0 23.5 -9t10.5 -24q0 -13 -9 -24l-563 -684q-5 -8 -13 -13t-19 -5zM719 350q0 -77 -25 -142.5t-70 -114.5t-107 -76t-135 -27q-74 0 -135.5 27t-106.5 76t-70 114.5t-25 142.5
q0 78 25 143.5t70 114t106.5 75.5t135.5 27q73 0 135 -27t107 -75.5t70 -114t25 -143.5zM633 350q0 82 -32.5 145t-88.5 99t-130 36t-130.5 -36t-88.5 -99t-32 -145q0 -81 32 -144.5t88.5 -99.5t130.5 -36t130 36t88.5 99.5t32.5 144.5z" />
    <glyph glyph-name="Ugrave" unicode="&#xd9;" horiz-adv-x="710" 
d="M584 701q17 0 28 -12t11 -29v-397q0 -77 -35.5 -138t-95.5 -96.5t-136 -35.5q-77 0 -137.5 35.5t-95.5 96.5t-35 138v397q0 17 11.5 29t30.5 12q16 0 28.5 -12t12.5 -29v-397q0 -55 25 -98t67.5 -67.5t92.5 -24.5q51 0 94 24.5t69.5 67.5t26.5 98v397q0 17 10 29t28 12z
M355 745q-6 0 -11.5 2t-10.5 5l-99 50q-25 14 -25 38q0 16 11.5 26.5t26.5 10.5q10 0 19 -4.5t16 -10.5l88 -72q6 -5 9 -10t3 -11q0 -10 -7 -17t-20 -7z" />
    <glyph glyph-name="Uacute" unicode="&#xda;" horiz-adv-x="710" 
d="M584 701q17 0 28 -12t11 -29v-397q0 -77 -35.5 -138t-95.5 -96.5t-136 -35.5q-77 0 -137.5 35.5t-95.5 96.5t-35 138v397q0 17 11.5 29t30.5 12q16 0 28.5 -12t12.5 -29v-397q0 -55 25 -98t67.5 -67.5t92.5 -24.5q51 0 94 24.5t69.5 67.5t26.5 98v397q0 17 10 29t28 12z
M359 743q-13 0 -20 7t-7 17q0 6 3 11t8 10l88 72q8 6 17 10.5t19 4.5q14 0 26 -10.5t12 -26.5q0 -12 -6.5 -22t-19.5 -16l-98 -50q-5 -3 -11 -5t-11 -2z" />
    <glyph glyph-name="Ucircumflex" unicode="&#xdb;" horiz-adv-x="710" 
d="M584 701q17 0 28 -12t11 -29v-397q0 -77 -35.5 -138t-95.5 -96.5t-136 -35.5q-77 0 -137.5 35.5t-95.5 96.5t-35 138v397q0 17 11.5 29t30.5 12q16 0 28.5 -12t12.5 -29v-397q0 -55 25 -98t67.5 -67.5t92.5 -24.5q51 0 94 24.5t69.5 67.5t26.5 98v397q0 17 10 29t28 12z
M367 833l-87 -63q-11 -7 -19 -11.5t-16 -4.5q-9 0 -15 6t-6 13q0 5 2 9.5t8 11.5l72 79q10 10 19.5 15t23.5 5h13q14 0 23.5 -5t18.5 -15l72 -79q6 -6 8.5 -10.5t2.5 -10.5t-6 -12t-16 -6q-7 0 -15.5 4.5t-19.5 11.5l-87 60z" />
    <glyph glyph-name="Udieresis" unicode="&#xdc;" horiz-adv-x="710" 
d="M584 701q17 0 28 -12t11 -29v-397q0 -77 -35.5 -138t-95.5 -96.5t-136 -35.5q-77 0 -137.5 35.5t-95.5 96.5t-35 138v397q0 17 11.5 29t30.5 12q16 0 28.5 -12t12.5 -29v-397q0 -55 25 -98t67.5 -67.5t92.5 -24.5q51 0 94 24.5t69.5 67.5t26.5 98v397q0 17 10 29t28 12z
M446 770q-24 0 -36 10.5t-12 32.5v13q0 23 12.5 33t35.5 10q24 0 36 -10.5t12 -32.5v-13q0 -22 -12 -32.5t-36 -10.5zM265 770q-24 0 -36 10.5t-12 32.5v13q0 23 13 33t36 10t35 -10.5t12 -32.5v-13q0 -22 -12 -32.5t-36 -10.5z" />
    <glyph glyph-name="Yacute" unicode="&#xdd;" horiz-adv-x="572" 
d="M514 704q17 0 28.5 -12.5t11.5 -28.5q0 -6 -1.5 -12.5t-5.5 -12.5l-232 -323l13 49v-323q0 -17 -11.5 -29t-27.5 -12q-18 0 -29.5 12t-11.5 29v315l7 -26l-225 304q-6 8 -8.5 15.5t-2.5 14.5q0 17 14 28.5t28 11.5q20 0 33 -19l207 -284l-19 3l199 280q13 20 33 20z
M289 743q-13 0 -20 7t-7 17q0 6 3 11t8 10l88 72q8 6 17 10.5t19 4.5q14 0 26 -10.5t12 -26.5q0 -12 -6.5 -22t-19.5 -16l-98 -50q-5 -3 -11 -5t-11 -2z" />
    <glyph glyph-name="Thorn" unicode="&#xde;" horiz-adv-x="593" 
d="M168 41q0 -17 -12 -29t-29 -12t-28 12t-11 29v659q0 17 11.5 28.5t28.5 11.5q18 0 29 -11.5t11 -28.5v-659zM156 259h201q32 0 57.5 17.5t40.5 47.5t15 67t-15 66t-40.5 45.5t-57.5 16.5h-201l-33 80h234q54 0 98 -27t70 -74t26 -107q0 -59 -26 -107t-70 -76.5t-98 -28.5
h-231z" />
    <glyph glyph-name="germandbls" unicode="&#xdf;" horiz-adv-x="627" 
d="M148 0q-18 0 -29 11.5t-11 29.5l1 457q0 44 13 86t39.5 75.5t67.5 53t96 19.5q61 0 102.5 -21t63 -55.5t21.5 -76.5q0 -25 -12.5 -50.5t-34.5 -46.5t-52 -33l-2 4q46 -14 85.5 -44.5t64 -76.5t24.5 -108q0 -68 -28.5 -121t-77 -83t-108.5 -30q-39 0 -67.5 10t-44.5 26
q-9 9 -10 24t14 27q10 9 23 9t26 -11q12 -9 28 -14t34 -5q37 0 67 20t47 56t17 82q0 58 -21.5 95t-56.5 58t-73 30q-18 5 -26 15t-8 23t6 22.5t16 14.5q30 10 50 26t30 35.5t10 39.5q0 37 -29.5 60.5t-80.5 23.5q-35 0 -60 -13t-41.5 -35.5t-24 -50.5t-7.5 -58l-1 -459
q0 -18 -11 -29.5t-29 -11.5zM69 423q-16 0 -28 11t-12 27q0 17 12 27.5t28 10.5h78q17 0 23.5 -11t6.5 -27t-6.5 -27t-23.5 -11h-78z" />
    <glyph glyph-name="agrave" unicode="&#xe0;" horiz-adv-x="614" 
d="M500 522q17 0 28.5 -11.5t11.5 -28.5v-441q0 -17 -11.5 -29t-28.5 -12q-18 0 -29 12t-11 29v95l19 2q0 -22 -15 -48t-41 -48.5t-61.5 -37t-76.5 -14.5q-68 0 -122 35.5t-85.5 96.5t-31.5 139q0 79 31.5 139.5t85.5 95t120 34.5q43 0 80 -14t64.5 -38t43 -53t15.5 -58
l-26 6v109q0 17 11 28.5t29 11.5zM294 64q50 0 88.5 26t60 70.5t21.5 100.5q0 55 -21.5 99.5t-60 70t-88.5 25.5q-49 0 -87.5 -25t-60.5 -69t-22 -101q0 -56 21.5 -100.5t60 -70.5t88.5 -26zM302 562q-6 0 -12.5 3.5t-12.5 7.5l-85 66q-11 7 -16.5 15.5t-5.5 19.5
q0 17 12 26.5t25 9.5t22 -6t16 -13l74 -85q9 -10 9 -20t-7 -17t-19 -7z" />
    <glyph glyph-name="aacute" unicode="&#xe1;" horiz-adv-x="614" 
d="M500 522q17 0 28.5 -11.5t11.5 -28.5v-441q0 -17 -11.5 -29t-28.5 -12q-18 0 -29 12t-11 29v95l19 2q0 -22 -15 -48t-41 -48.5t-61.5 -37t-76.5 -14.5q-68 0 -122 35.5t-85.5 96.5t-31.5 139q0 79 31.5 139.5t85.5 95t120 34.5q43 0 80 -14t64.5 -38t43 -53t15.5 -58
l-26 6v109q0 17 11 28.5t29 11.5zM294 64q50 0 88.5 26t60 70.5t21.5 100.5q0 55 -21.5 99.5t-60 70t-88.5 25.5q-49 0 -87.5 -25t-60.5 -69t-22 -101q0 -56 21.5 -100.5t60 -70.5t88.5 -26zM294 558q-7 0 -14.5 6t-7.5 16q0 7 6 16l60 98q6 10 16 19t24 9q20 0 30 -10.5
t10 -27.5q-1 -8 -4 -15t-9 -15l-76 -80q-7 -8 -16.5 -12t-18.5 -4z" />
    <glyph glyph-name="acircumflex" unicode="&#xe2;" horiz-adv-x="614" 
d="M500 522q17 0 28.5 -11.5t11.5 -28.5v-441q0 -17 -11.5 -29t-28.5 -12q-18 0 -29 12t-11 29v95l19 2q0 -22 -15 -48t-41 -48.5t-61.5 -37t-76.5 -14.5q-68 0 -122 35.5t-85.5 96.5t-31.5 139q0 79 31.5 139.5t85.5 95t120 34.5q43 0 80 -14t64.5 -38t43 -53t15.5 -58
l-26 6v109q0 17 11 28.5t29 11.5zM294 64q50 0 88.5 26t60 70.5t21.5 100.5q0 55 -21.5 99.5t-60 70t-88.5 25.5q-49 0 -87.5 -25t-60.5 -69t-22 -101q0 -56 21.5 -100.5t60 -70.5t88.5 -26zM315 671l-84 -70q-9 -8 -15.5 -12.5t-18.5 -4.5q-9 0 -15 5.5t-6 12.5q0 6 2 10.5
t7 11.5l65 74q16 20 43 20h23q14 0 22.5 -4t16.5 -16l62 -74q6 -6 7.5 -11t1.5 -10q0 -7 -5.5 -13t-15.5 -6q-11 0 -17.5 5t-16.5 12l-87 73z" />
    <glyph glyph-name="atilde" unicode="&#xe3;" horiz-adv-x="614" 
d="M500 522q17 0 28.5 -11.5t11.5 -28.5v-441q0 -17 -11.5 -29t-28.5 -12q-18 0 -29 12t-11 29v95l19 2q0 -22 -15 -48t-41 -48.5t-61.5 -37t-76.5 -14.5q-68 0 -122 35.5t-85.5 96.5t-31.5 139q0 79 31.5 139.5t85.5 95t120 34.5q43 0 80 -14t64.5 -38t43 -53t15.5 -58
l-26 6v109q0 17 11 28.5t29 11.5zM294 64q50 0 88.5 26t60 70.5t21.5 100.5q0 55 -21.5 99.5t-60 70t-88.5 25.5q-49 0 -87.5 -25t-60.5 -69t-22 -101q0 -56 21.5 -100.5t60 -70.5t88.5 -26zM170 584q-18 0 -27 13.5t-7 38.5q5 32 31.5 53t69.5 21q21 0 40.5 -9t37 -20.5
t33.5 -21t29 -9.5t20.5 8.5t7.5 23.5q-3 16 5.5 25t21.5 9q19 0 27.5 -13.5t6.5 -36.5q-2 -21 -13.5 -38.5t-31.5 -28.5t-50 -11q-18 0 -37 9t-38.5 20.5t-36.5 20.5t-30 9t-21.5 -7.5t-10.5 -23.5q2 -15 -6.5 -23.5t-20.5 -8.5z" />
    <glyph glyph-name="adieresis" unicode="&#xe4;" horiz-adv-x="614" 
d="M500 522q17 0 28.5 -11.5t11.5 -28.5v-441q0 -17 -11.5 -29t-28.5 -12q-18 0 -29 12t-11 29v95l19 2q0 -22 -15 -48t-41 -48.5t-61.5 -37t-76.5 -14.5q-68 0 -122 35.5t-85.5 96.5t-31.5 139q0 79 31.5 139.5t85.5 95t120 34.5q43 0 80 -14t64.5 -38t43 -53t15.5 -58
l-26 6v109q0 17 11 28.5t29 11.5zM294 64q50 0 88.5 26t60 70.5t21.5 100.5q0 55 -21.5 99.5t-60 70t-88.5 25.5q-49 0 -87.5 -25t-60.5 -69t-22 -101q0 -56 21.5 -100.5t60 -70.5t88.5 -26zM389 600q-23 0 -35 11t-12 32v13q0 23 13 33t36 10t35 -10.5t12 -32.5v-13
q0 -23 -12 -33t-37 -10zM208 600q-23 0 -35 11t-12 32v13q0 22 12.5 32.5t35.5 10.5q24 0 36 -10t12 -33v-13q0 -23 -12 -33t-37 -10z" />
    <glyph glyph-name="aring" unicode="&#xe5;" horiz-adv-x="614" 
d="M500 522q17 0 28.5 -11.5t11.5 -28.5v-441q0 -17 -11.5 -29t-28.5 -12q-18 0 -29 12t-11 29v95l19 2q0 -22 -15 -48t-41 -48.5t-61.5 -37t-76.5 -14.5q-68 0 -122 35.5t-85.5 96.5t-31.5 139q0 79 31.5 139.5t85.5 95t120 34.5q43 0 80 -14t64.5 -38t43 -53t15.5 -58
l-26 6v109q0 17 11 28.5t29 11.5zM294 64q50 0 88.5 26t60 70.5t21.5 100.5q0 55 -21.5 99.5t-60 70t-88.5 25.5q-49 0 -87.5 -25t-60.5 -69t-22 -101q0 -56 21.5 -100.5t60 -70.5t88.5 -26zM301 560q-28 0 -52 14t-39 37t-15 51t15 51.5t39 37t52 13.5t52.5 -13.5t39 -37
t14.5 -51.5t-14.5 -51t-39 -37t-52.5 -14zM301 611q23 0 38 15t15 36q0 23 -15.5 37t-37.5 14t-37.5 -14t-15.5 -37q0 -21 15.5 -36t37.5 -15z" />
    <glyph glyph-name="ae" unicode="&#xe6;" horiz-adv-x="911" 
d="M271 530q35 0 68.5 -7t61 -23t44 -43.5t16.5 -68.5v-128l-76 -4v105q0 41 -18.5 61t-45 27t-51.5 7q-34 0 -63 -11.5t-51 -29.5t-38 -39q-13 -15 -31 -15q-13 0 -23.5 9.5t-10.5 23.5q0 7 2 13.5t7 13.5q21 26 51.5 51.5t70.5 41.5t87 16zM218 -10q-40 0 -79 17t-65 51.5
t-26 86.5q0 55 29.5 92.5t86 57.5t137.5 20h493l-14 -13v21q-3 41 -26.5 70.5t-57.5 45.5t-71 16q-30 0 -59.5 -10.5t-53 -34t-37.5 -60.5t-14 -89q0 -58 23.5 -102t65.5 -69.5t97 -25.5q36 0 62 9t44.5 22.5t31.5 27.5q13 9 26 9q14 0 24 -10t10 -24q0 -17 -16 -30
q-29 -31 -76.5 -54.5t-102.5 -23.5q-80 0 -140 34t-93 93.5t-33 137.5q0 87 34.5 148.5t89.5 94t117 32.5q47 0 89.5 -17t76 -49.5t53.5 -78t21 -101.5q-1 -16 -13 -27t-28 -11h-528q-55 0 -92.5 -12.5t-56.5 -35t-19 -52.5q0 -28 14.5 -46.5t36 -27.5t43.5 -9q44 0 80 17.5
t61 42.5t35 46l38 -56q-16 -24 -46.5 -53t-73 -49.5t-98.5 -20.5z" />
    <glyph glyph-name="ccedilla" unicode="&#xe7;" horiz-adv-x="519" 
d="M304 530q51 0 92 -11t65 -30t24 -43q0 -13 -9 -25t-24 -12q-14 0 -22.5 5t-16 13t-20.5 14q-12 7 -35 11t-46 4q-55 0 -96.5 -26t-65.5 -70t-24 -100t23 -100t64 -70t95 -26q35 0 56 6t35 14q18 10 27.5 20t25.5 10q17 0 26.5 -11t9.5 -27q0 -18 -25 -38t-67.5 -34
t-96.5 -14q-76 0 -133 35.5t-88.5 97t-31.5 137.5t32.5 137t90.5 97t135 36zM241 -146q-7 0 -19 4.5t-21.5 13t-9.5 19.5q0 12 9 22l84 107h49l-61 -142q-9 -24 -31 -24z" />
    <glyph glyph-name="egrave" unicode="&#xe8;" horiz-adv-x="573" 
d="M313 -10q-80 0 -140 34t-93.5 93.5t-33.5 137.5q0 87 34.5 148.5t90 94t117.5 32.5q46 0 89 -17t76 -49.5t53 -78t21 -101.5q0 -16 -12 -27t-28 -11h-395l-18 69h385l-16 -14v22q-4 41 -27.5 70.5t-57 45.5t-70.5 16q-30 0 -59.5 -10.5t-53 -34t-38 -60.5t-14.5 -89
q0 -58 23.5 -102t65.5 -69.5t98 -25.5q35 0 61 9t45 22.5t32 27.5q13 9 25 9q15 0 24.5 -10t9.5 -24q0 -17 -16 -30q-28 -31 -76 -54.5t-102 -23.5zM292 562q-6 0 -12.5 3.5t-12.5 7.5l-85 66q-11 7 -16.5 15.5t-5.5 19.5q0 17 12 26.5t25 9.5t22 -6t16 -13l74 -85
q9 -10 9 -20t-7 -17t-19 -7z" />
    <glyph glyph-name="eacute" unicode="&#xe9;" horiz-adv-x="573" 
d="M313 -10q-80 0 -140 34t-93.5 93.5t-33.5 137.5q0 87 34.5 148.5t90 94t117.5 32.5q46 0 89 -17t76 -49.5t53 -78t21 -101.5q0 -16 -12 -27t-28 -11h-395l-18 69h385l-16 -14v22q-4 41 -27.5 70.5t-57 45.5t-70.5 16q-30 0 -59.5 -10.5t-53 -34t-38 -60.5t-14.5 -89
q0 -58 23.5 -102t65.5 -69.5t98 -25.5q35 0 61 9t45 22.5t32 27.5q13 9 25 9q15 0 24.5 -10t9.5 -24q0 -17 -16 -30q-28 -31 -76 -54.5t-102 -23.5zM283 558q-7 0 -14.5 6t-7.5 16q0 7 6 16l60 98q6 10 16 19t24 9q20 0 30 -10.5t10 -27.5q-1 -8 -4 -15t-9 -15l-76 -80
q-7 -8 -16.5 -12t-18.5 -4z" />
    <glyph glyph-name="ecircumflex" unicode="&#xea;" horiz-adv-x="573" 
d="M313 -10q-80 0 -140 34t-93.5 93.5t-33.5 137.5q0 87 34.5 148.5t90 94t117.5 32.5q46 0 89 -17t76 -49.5t53 -78t21 -101.5q0 -16 -12 -27t-28 -11h-395l-18 69h385l-16 -14v22q-4 41 -27.5 70.5t-57 45.5t-70.5 16q-30 0 -59.5 -10.5t-53 -34t-38 -60.5t-14.5 -89
q0 -58 23.5 -102t65.5 -69.5t98 -25.5q35 0 61 9t45 22.5t32 27.5q13 9 25 9q15 0 24.5 -10t9.5 -24q0 -17 -16 -30q-28 -31 -76 -54.5t-102 -23.5zM304 671l-84 -70q-9 -8 -15.5 -12.5t-18.5 -4.5q-9 0 -15 5.5t-6 12.5q0 6 2 10.5t7 11.5l65 74q16 20 43 20h23
q14 0 22.5 -4t16.5 -16l62 -74q6 -6 7.5 -11t1.5 -10q0 -7 -5.5 -13t-15.5 -6q-11 0 -17.5 5t-16.5 12l-87 73z" />
    <glyph glyph-name="edieresis" unicode="&#xeb;" horiz-adv-x="573" 
d="M313 -10q-80 0 -140 34t-93.5 93.5t-33.5 137.5q0 87 34.5 148.5t90 94t117.5 32.5q46 0 89 -17t76 -49.5t53 -78t21 -101.5q0 -16 -12 -27t-28 -11h-395l-18 69h385l-16 -14v22q-4 41 -27.5 70.5t-57 45.5t-70.5 16q-30 0 -59.5 -10.5t-53 -34t-38 -60.5t-14.5 -89
q0 -58 23.5 -102t65.5 -69.5t98 -25.5q35 0 61 9t45 22.5t32 27.5q13 9 25 9q15 0 24.5 -10t9.5 -24q0 -17 -16 -30q-28 -31 -76 -54.5t-102 -23.5zM379 600q-23 0 -35 11t-12 32v13q0 23 13 33t36 10t35 -10.5t12 -32.5v-13q0 -23 -12 -33t-37 -10zM198 600q-23 0 -35 11
t-12 32v13q0 22 12.5 32.5t35.5 10.5q24 0 36 -10t12 -33v-13q0 -23 -12 -33t-37 -10z" />
    <glyph glyph-name="igrave" unicode="&#xec;" horiz-adv-x="221" 
d="M151 41q0 -17 -11.5 -29t-28.5 -12q-18 0 -29 12t-11 29v444q0 17 11.5 28.5t28.5 11.5t28.5 -11.5t11.5 -28.5v-444zM113 562q-6 0 -12.5 3.5t-12.5 7.5l-85 66q-11 7 -16.5 15.5t-5.5 19.5q0 17 12 26.5t25 9.5t22 -6t16 -13l74 -85q9 -10 9 -20t-7 -17t-19 -7z" />
    <glyph glyph-name="iacute" unicode="&#xed;" horiz-adv-x="221" 
d="M151 41q0 -17 -11.5 -29t-28.5 -12q-18 0 -29 12t-11 29v444q0 17 11.5 28.5t28.5 11.5t28.5 -11.5t11.5 -28.5v-444zM105 558q-7 0 -14.5 6t-7.5 16q0 7 6 16l60 98q6 10 16 19t24 9q20 0 30 -10.5t10 -27.5q-1 -8 -4 -15t-9 -15l-76 -80q-7 -8 -16.5 -12t-18.5 -4z" />
    <glyph glyph-name="icircumflex" unicode="&#xee;" horiz-adv-x="221" 
d="M151 41q0 -17 -11.5 -29t-28.5 -12q-18 0 -29 12t-11 29v444q0 17 11.5 28.5t28.5 11.5t28.5 -11.5t11.5 -28.5v-444zM126 671l-84 -70q-9 -8 -15.5 -12.5t-18.5 -4.5q-9 0 -15 5.5t-6 12.5q0 6 2 10.5t7 11.5l65 74q16 20 43 20h23q14 0 22.5 -4t16.5 -16l62 -74
q6 -6 7.5 -11t1.5 -10q0 -7 -5.5 -13t-15.5 -6q-11 0 -17.5 5t-16.5 12l-87 73z" />
    <glyph glyph-name="idieresis" unicode="&#xef;" horiz-adv-x="221" 
d="M151 41q0 -17 -11.5 -29t-28.5 -12q-18 0 -29 12t-11 29v444q0 17 11.5 28.5t28.5 11.5t28.5 -11.5t11.5 -28.5v-444zM200 600q-23 0 -35 11t-12 32v13q0 23 13 33t36 10t35 -10.5t12 -32.5v-13q0 -23 -12 -33t-37 -10zM19 600q-23 0 -35 11t-12 32v13q0 22 12.5 32.5
t35.5 10.5q24 0 36 -10t12 -33v-13q0 -23 -12 -33t-37 -10z" />
    <glyph glyph-name="eth" unicode="&#xf0;" horiz-adv-x="578" 
d="M289 -5q-67 0 -122.5 36t-88 96.5t-32.5 134.5q0 55 19.5 102.5t52.5 83t75 56t88 20.5q54 0 93.5 -24t64.5 -63t36 -85l-41 24q-5 56 -21 103t-43.5 83t-68 61t-94.5 38q-15 4 -25 14.5t-10 24.5q0 16 8.5 28t26.5 12q10 0 19 -2q66 -16 117 -51.5t86.5 -83.5t58 -102.5
t33.5 -111t11 -106.5q0 -88 -33 -153t-87.5 -100t-122.5 -35zM289 74q45 0 82 25.5t58.5 68t21.5 94.5q0 49 -21.5 90.5t-58 67t-82.5 25.5q-45 0 -82.5 -24.5t-59 -65.5t-21.5 -93t22 -94.5t59 -68t82 -25.5zM208 541q-15 -4 -27 0.5t-16 19.5q-3 14 4 24t22 13l112 33
l49 18l104 28q15 3 27 -1.5t16 -18.5q3 -15 -4.5 -25t-21.5 -13l-77 -21l-39 -16z" />
    <glyph glyph-name="ntilde" unicode="&#xf1;" horiz-adv-x="584" 
d="M331 530q68 0 107 -28t55.5 -75t16.5 -105v-281q0 -17 -11.5 -29t-28.5 -12t-28.5 12t-11.5 29v279q0 38 -11.5 68.5t-38 49t-72.5 18.5q-42 0 -77 -18.5t-56 -49t-21 -68.5v-279q0 -17 -11.5 -29t-28.5 -12t-28.5 12t-11.5 29v436q0 17 11.5 28.5t28.5 11.5
q18 0 29 -11.5t11 -28.5v-71l-20 -22q5 26 23 52.5t45 47.5t60 33.5t69 12.5zM175 584q-18 0 -27 13.5t-7 38.5q5 32 31.5 53t69.5 21q21 0 40.5 -9t37 -20.5t33.5 -21t29 -9.5t20.5 8.5t7.5 23.5q-3 16 5.5 25t21.5 9q19 0 27.5 -13.5t6.5 -36.5q-2 -21 -13.5 -38.5
t-31.5 -28.5t-50 -11q-18 0 -37 9t-38.5 20.5t-36.5 20.5t-30 9t-21.5 -7.5t-10.5 -23.5q2 -15 -6.5 -23.5t-20.5 -8.5z" />
    <glyph glyph-name="ograve" unicode="&#xf2;" horiz-adv-x="611" 
d="M565 260q0 -78 -34.5 -139t-93 -96t-131.5 -35t-132 35t-93.5 96t-34.5 139t34.5 139t93.5 96t132 35t131.5 -35t93 -96t34.5 -139zM485 260q0 58 -23.5 102t-64 69t-91.5 25t-91.5 -25t-64.5 -69t-24 -102q0 -57 24 -101t64.5 -69.5t91.5 -25.5t91.5 25.5t64 69.5
t23.5 101zM308 567q-6 0 -12.5 3.5t-12.5 7.5l-85 66q-11 7 -16.5 15.5t-5.5 19.5q0 17 12 26.5t25 9.5t22 -6t16 -13l74 -85q9 -10 9 -20t-7 -17t-19 -7z" />
    <glyph glyph-name="oacute" unicode="&#xf3;" horiz-adv-x="611" 
d="M565 260q0 -78 -34.5 -139t-93 -96t-131.5 -35t-132 35t-93.5 96t-34.5 139t34.5 139t93.5 96t132 35t131.5 -35t93 -96t34.5 -139zM485 260q0 58 -23.5 102t-64 69t-91.5 25t-91.5 -25t-64.5 -69t-24 -102q0 -57 24 -101t64.5 -69.5t91.5 -25.5t91.5 25.5t64 69.5
t23.5 101zM300 563q-7 0 -14.5 6t-7.5 16q0 7 6 16l60 98q6 10 16 19t24 9q20 0 30 -10.5t10 -27.5q-1 -8 -4 -15t-9 -15l-76 -80q-7 -8 -16.5 -12t-18.5 -4z" />
    <glyph glyph-name="ocircumflex" unicode="&#xf4;" horiz-adv-x="611" 
d="M565 260q0 -78 -34.5 -139t-93 -96t-131.5 -35t-132 35t-93.5 96t-34.5 139t34.5 139t93.5 96t132 35t131.5 -35t93 -96t34.5 -139zM485 260q0 58 -23.5 102t-64 69t-91.5 25t-91.5 -25t-64.5 -69t-24 -102q0 -57 24 -101t64.5 -69.5t91.5 -25.5t91.5 25.5t64 69.5
t23.5 101zM321 676l-84 -70q-9 -8 -15.5 -12.5t-18.5 -4.5q-9 0 -15 5.5t-6 12.5q0 6 2 10.5t7 11.5l65 74q16 20 43 20h23q14 0 22.5 -4t16.5 -16l62 -74q6 -6 7.5 -11t1.5 -10q0 -7 -5.5 -13t-15.5 -6q-11 0 -17.5 5t-16.5 12l-87 73z" />
    <glyph glyph-name="otilde" unicode="&#xf5;" horiz-adv-x="611" 
d="M565 260q0 -78 -34.5 -139t-93 -96t-131.5 -35t-132 35t-93.5 96t-34.5 139t34.5 139t93.5 96t132 35t131.5 -35t93 -96t34.5 -139zM485 260q0 58 -23.5 102t-64 69t-91.5 25t-91.5 -25t-64.5 -69t-24 -102q0 -57 24 -101t64.5 -69.5t91.5 -25.5t91.5 25.5t64 69.5
t23.5 101zM176 589q-18 0 -27 13.5t-7 38.5q5 32 31.5 53t69.5 21q21 0 40.5 -9t37 -20.5t33.5 -21t29 -9.5t20.5 8.5t7.5 23.5q-3 16 5.5 25t21.5 9q19 0 27.5 -13.5t6.5 -36.5q-2 -21 -13.5 -38.5t-31.5 -28.5t-50 -11q-18 0 -37 9t-38.5 20.5t-36.5 20.5t-30 9
t-21.5 -7.5t-10.5 -23.5q2 -15 -6.5 -23.5t-20.5 -8.5z" />
    <glyph glyph-name="odieresis" unicode="&#xf6;" horiz-adv-x="611" 
d="M565 260q0 -78 -34.5 -139t-93 -96t-131.5 -35t-132 35t-93.5 96t-34.5 139t34.5 139t93.5 96t132 35t131.5 -35t93 -96t34.5 -139zM485 260q0 58 -23.5 102t-64 69t-91.5 25t-91.5 -25t-64.5 -69t-24 -102q0 -57 24 -101t64.5 -69.5t91.5 -25.5t91.5 25.5t64 69.5
t23.5 101zM395 605q-23 0 -35 11t-12 32v13q0 23 13 33t36 10t35 -10.5t12 -32.5v-13q0 -23 -12 -33t-37 -10zM214 605q-23 0 -35 11t-12 32v13q0 22 12.5 32.5t35.5 10.5q24 0 36 -10t12 -33v-13q0 -23 -12 -33t-37 -10z" />
    <glyph glyph-name="divide" unicode="&#xf7;" horiz-adv-x="582" 
d="M233 506q0 24 16 40.5t39 16.5q24 0 40.5 -16.5t16.5 -40.5q0 -22 -16.5 -38.5t-40.5 -16.5q-23 0 -39 16.5t-16 38.5zM233 154q0 23 16 40t39 17q24 0 40.5 -17t16.5 -40q0 -22 -16.5 -38.5t-40.5 -16.5q-23 0 -39 16.5t-16 38.5zM90 295q-17 0 -28.5 11t-11.5 27
q0 15 11.5 26t28.5 11h402q17 0 28.5 -11t11.5 -27q0 -15 -11.5 -26t-28.5 -11h-402z" />
    <glyph glyph-name="oslash" unicode="&#xf8;" horiz-adv-x="611" 
d="M93 -25q-14 0 -24.5 11t-10.5 24q0 14 9 24l427 500q11 13 27 13q14 0 24.5 -10t10.5 -25q0 -13 -9 -23l-427 -501q-11 -13 -27 -13zM565 260q0 -78 -34.5 -139t-93 -96t-131.5 -35t-132 35t-93.5 96t-34.5 139t34.5 139t93.5 96t132 35t131.5 -35t93 -96t34.5 -139z
M485 260q0 58 -23.5 102t-64 69t-91.5 25t-91.5 -25t-64.5 -69t-24 -102q0 -57 24 -101t64.5 -69.5t91.5 -25.5t91.5 25.5t64 69.5t23.5 101z" />
    <glyph glyph-name="ugrave" unicode="&#xf9;" horiz-adv-x="575" 
d="M461 517q18 0 29 -11.5t11 -28.5v-273q0 -101 -56.5 -156.5t-157.5 -55.5q-100 0 -156.5 55.5t-56.5 156.5v273q0 17 11.5 28.5t28.5 11.5q18 0 29 -11.5t11 -28.5v-273q0 -68 35 -103t98 -35q65 0 99.5 35t34.5 103v273q0 17 11.5 28.5t28.5 11.5zM291 562
q-6 0 -12.5 3.5t-12.5 7.5l-85 66q-11 7 -16.5 15.5t-5.5 19.5q0 17 12 26.5t25 9.5t22 -6t16 -13l74 -85q9 -10 9 -20t-7 -17t-19 -7z" />
    <glyph glyph-name="uacute" unicode="&#xfa;" horiz-adv-x="575" 
d="M461 517q18 0 29 -11.5t11 -28.5v-273q0 -101 -56.5 -156.5t-157.5 -55.5q-100 0 -156.5 55.5t-56.5 156.5v273q0 17 11.5 28.5t28.5 11.5q18 0 29 -11.5t11 -28.5v-273q0 -68 35 -103t98 -35q65 0 99.5 35t34.5 103v273q0 17 11.5 28.5t28.5 11.5zM282 558q-7 0 -14.5 6
t-7.5 16q0 7 6 16l60 98q6 10 16 19t24 9q20 0 30 -10.5t10 -27.5q-1 -8 -4 -15t-9 -15l-76 -80q-7 -8 -16.5 -12t-18.5 -4z" />
    <glyph glyph-name="ucircumflex" unicode="&#xfb;" horiz-adv-x="575" 
d="M461 517q18 0 29 -11.5t11 -28.5v-273q0 -101 -56.5 -156.5t-157.5 -55.5q-100 0 -156.5 55.5t-56.5 156.5v273q0 17 11.5 28.5t28.5 11.5q18 0 29 -11.5t11 -28.5v-273q0 -68 35 -103t98 -35q65 0 99.5 35t34.5 103v273q0 17 11.5 28.5t28.5 11.5zM303 671l-84 -70
q-9 -8 -15.5 -12.5t-18.5 -4.5q-9 0 -15 5.5t-6 12.5q0 6 2 10.5t7 11.5l65 74q16 20 43 20h23q14 0 22.5 -4t16.5 -16l62 -74q6 -6 7.5 -11t1.5 -10q0 -7 -5.5 -13t-15.5 -6q-11 0 -17.5 5t-16.5 12l-87 73z" />
    <glyph glyph-name="udieresis" unicode="&#xfc;" horiz-adv-x="575" 
d="M461 517q18 0 29 -11.5t11 -28.5v-273q0 -101 -56.5 -156.5t-157.5 -55.5q-100 0 -156.5 55.5t-56.5 156.5v273q0 17 11.5 28.5t28.5 11.5q18 0 29 -11.5t11 -28.5v-273q0 -68 35 -103t98 -35q65 0 99.5 35t34.5 103v273q0 17 11.5 28.5t28.5 11.5zM378 600q-23 0 -35 11
t-12 32v13q0 23 13 33t36 10t35 -10.5t12 -32.5v-13q0 -23 -12 -33t-37 -10zM197 600q-23 0 -35 11t-12 32v13q0 22 12.5 32.5t35.5 10.5q24 0 36 -10t12 -33v-13q0 -23 -12 -33t-37 -10z" />
    <glyph glyph-name="yacute" unicode="&#xfd;" horiz-adv-x="575" 
d="M461 525q17 0 28.5 -11.5t11.5 -28.5v-436q0 -84 -33 -139.5t-88.5 -82.5t-125.5 -27q-39 0 -75 8t-59 21q-19 9 -26.5 22.5t-2.5 28.5q7 18 20.5 25t28.5 0q16 -7 46.5 -19.5t68.5 -12.5q52 0 89 20t57 58.5t20 95.5v71l12 -25q-16 -31 -43 -54t-62 -36t-77 -13
q-57 0 -96.5 24.5t-60 68t-20.5 100.5v302q0 17 11.5 28.5t28.5 11.5q18 0 29 -11.5t11 -28.5v-284q0 -68 30 -102.5t93 -34.5q40 0 72.5 18t52 49.5t19.5 69.5v284q0 17 11 28.5t29 11.5zM282 558q-7 0 -14.5 6t-7.5 16q0 7 6 16l60 98q6 10 16 19t24 9q20 0 30 -10.5
t10 -27.5q-1 -8 -4 -15t-9 -15l-76 -80q-7 -8 -16.5 -12t-18.5 -4z" />
    <glyph glyph-name="thorn" unicode="&#xfe;" horiz-adv-x="614" 
d="M329 525q68 0 122 -34t85.5 -94t31.5 -138q0 -77 -31.5 -137.5t-85 -95t-120.5 -34.5q-37 0 -69.5 11.5t-59 30t-44.5 42t-26 46.5l22 14v-295q0 -17 -11 -29t-29 -12q-17 0 -28.5 11.5t-11.5 29.5v859q0 17 11.5 28.5t28.5 11.5q18 0 29 -11.5t11 -28.5v-309l-15 8
q7 25 24.5 48t43 40.5t57 27.5t65.5 10zM320 451q-50 0 -88.5 -25t-60 -68t-21.5 -99q0 -55 21.5 -99t60 -69t88.5 -25t88 25t60 69t22 99q0 56 -22 99t-60 68t-88 25z" />
    <glyph glyph-name="ydieresis" unicode="&#xff;" horiz-adv-x="575" 
d="M461 525q17 0 28.5 -11.5t11.5 -28.5v-436q0 -84 -33 -139.5t-88.5 -82.5t-125.5 -27q-39 0 -75 8t-59 21q-19 9 -26.5 22.5t-2.5 28.5q7 18 20.5 25t28.5 0q16 -7 46.5 -19.5t68.5 -12.5q52 0 89 20t57 58.5t20 95.5v71l12 -25q-16 -31 -43 -54t-62 -36t-77 -13
q-57 0 -96.5 24.5t-60 68t-20.5 100.5v302q0 17 11.5 28.5t28.5 11.5q18 0 29 -11.5t11 -28.5v-284q0 -68 30 -102.5t93 -34.5q40 0 72.5 18t52 49.5t19.5 69.5v284q0 17 11 28.5t29 11.5zM377 600q-23 0 -35 11t-12 32v13q0 23 13 33t36 10t35 -10.5t12 -32.5v-13
q0 -23 -12 -33t-37 -10zM196 600q-23 0 -35 11t-12 32v13q0 22 12.5 32.5t35.5 10.5q24 0 36 -10t12 -33v-13q0 -23 -12 -33t-37 -10z" />
    <glyph glyph-name="Amacron" unicode="&#x100;" horiz-adv-x="644" 
d="M330 596l-235 -572q-4 -12 -14 -19t-21 -7q-19 0 -28 10t-9 24q-1 7 2 15l259 630q5 14 15.5 20.5t23.5 5.5q13 0 23.5 -7t14.5 -19l258 -624q3 -8 3 -16q0 -18 -12 -28.5t-27 -10.5q-12 0 -22 7t-15 20l-238 572zM145 187l34 78h297l15 -78h-346zM200 776q-36 0 -36 31
q0 32 36 32h251q36 0 36 -32q0 -31 -36 -31h-251z" />
    <glyph glyph-name="amacron" unicode="&#x101;" horiz-adv-x="614" 
d="M500 522q17 0 28.5 -11.5t11.5 -28.5v-441q0 -17 -11.5 -29t-28.5 -12q-18 0 -29 12t-11 29v95l19 2q0 -22 -15 -48t-41 -48.5t-61.5 -37t-76.5 -14.5q-68 0 -122 35.5t-85.5 96.5t-31.5 139q0 79 31.5 139.5t85.5 95t120 34.5q43 0 80 -14t64.5 -38t43 -53t15.5 -58
l-26 6v109q0 17 11 28.5t29 11.5zM294 64q50 0 88.5 26t60 70.5t21.5 100.5q0 55 -21.5 99.5t-60 70t-88.5 25.5q-49 0 -87.5 -25t-60.5 -69t-22 -101q0 -56 21.5 -100.5t60 -70.5t88.5 -26zM178 603q-35 0 -35 33q0 32 35 32h241q35 0 35 -32q0 -33 -35 -33h-241z" />
    <glyph glyph-name="Abreve" unicode="&#x102;" horiz-adv-x="644" 
d="M330 596l-235 -572q-4 -12 -14 -19t-21 -7q-19 0 -28 10t-9 24q-1 7 2 15l259 630q5 14 15.5 20.5t23.5 5.5q13 0 23.5 -7t14.5 -19l258 -624q3 -8 3 -16q0 -18 -12 -28.5t-27 -10.5q-12 0 -22 7t-15 20l-238 572zM145 187l34 78h297l15 -78h-346zM324 770
q-53 0 -90.5 25.5t-53.5 72.5q-6 17 1 27.5t21 10.5q16 0 23.5 -6.5t16.5 -19.5q13 -24 33 -36t49 -12q58 0 82 48q8 12 16.5 19t23.5 7t22 -10t1 -27q-16 -48 -53.5 -73.5t-91.5 -25.5z" />
    <glyph glyph-name="abreve" unicode="&#x103;" horiz-adv-x="614" 
d="M500 522q17 0 28.5 -11.5t11.5 -28.5v-441q0 -17 -11.5 -29t-28.5 -12q-18 0 -29 12t-11 29v95l19 2q0 -22 -15 -48t-41 -48.5t-61.5 -37t-76.5 -14.5q-68 0 -122 35.5t-85.5 96.5t-31.5 139q0 79 31.5 139.5t85.5 95t120 34.5q43 0 80 -14t64.5 -38t43 -53t15.5 -58
l-26 6v109q0 17 11 28.5t29 11.5zM294 64q50 0 88.5 26t60 70.5t21.5 100.5q0 55 -21.5 99.5t-60 70t-88.5 25.5q-49 0 -87.5 -25t-60.5 -69t-22 -101q0 -56 21.5 -100.5t60 -70.5t88.5 -26zM295 572q-35 0 -64.5 14.5t-49 40t-25.5 57.5q-5 16 2.5 26t21.5 10q15 0 24 -7.5
t16 -20.5q8 -28 28 -43t47 -15q28 0 47.5 15.5t27.5 42.5q8 13 16.5 20.5t24.5 7.5q14 0 21.5 -10t2.5 -25q-6 -32 -25.5 -57.5t-49 -40.5t-65.5 -15z" />
    <glyph glyph-name="Aogonek" unicode="&#x104;" horiz-adv-x="646" 
d="M550 -196q-41 0 -72.5 25.5t-31.5 74.5q0 32 13 55t33 39.5t43.5 27.5t45.5 17l2 -22l-31 -10l-244 586l22 -1l-235 -572q-4 -12 -14 -19t-21 -7q-20 0 -28 8.5t-9 24.5q0 9 3 17l258 629q5 14 15.5 20.5t23.5 5.5q13 0 23.5 -7t14.5 -19l263 -637q3 -7 3 -13
q0 -10 -5.5 -17t-18.5 -11q-36 -9 -61.5 -31.5t-25.5 -49.5q0 -24 13 -36.5t29 -12.5q18 0 26 12q7 9 15 12.5t15 3.5q13 0 21.5 -8.5t8.5 -22.5t-13.5 -28.5t-35 -24t-45.5 -9.5zM154 187l25 78h297l15 -78h-337z" />
    <glyph glyph-name="aogonek" unicode="&#x105;" horiz-adv-x="613" 
d="M294 64q50 0 88.5 26t60 70.5t21.5 100.5q0 55 -21.5 99.5t-60 70t-88.5 25.5q-49 0 -87.5 -25t-60.5 -69t-22 -101q0 -56 21.5 -100.5t60 -70.5t88.5 -26zM466 -201q-41 0 -72.5 25.5t-31.5 74.5q0 32 12 55t32 38.5t43.5 26t46.5 16.5l-36 -31v132l19 2q0 -22 -15 -48
t-41 -48.5t-61.5 -37t-76.5 -14.5q-68 0 -122 35.5t-85.5 96.5t-31.5 139q0 79 31.5 139.5t85.5 95t120 34.5q43 0 80 -14t64.5 -38t43 -53t15.5 -58l-26 6v109q0 17 11 28.5t29 11.5q17 0 28.5 -11.5t11.5 -28.5v-459q0 -9 -5.5 -18t-22.5 -15q-34 -10 -58 -30.5t-24 -45.5
q0 -24 13.5 -37t29.5 -13q9 0 15.5 3t11.5 9q7 9 15.5 12.5t15.5 3.5q12 0 20.5 -8.5t8.5 -22.5t-13 -28.5t-34.5 -24t-46.5 -9.5z" />
    <glyph glyph-name="Cacute" unicode="&#x106;" horiz-adv-x="645" 
d="M592 654q17 -9 19.5 -27t-9.5 -33q-9 -13 -23 -14t-28 6q-33 20 -71 31.5t-80 11.5q-59 0 -108 -20.5t-85 -57.5t-56 -88t-20 -113q0 -66 21 -118t57.5 -88.5t85 -55.5t105.5 -19q41 0 79 11t72 32q14 7 28 5t24 -14q12 -16 9 -33.5t-19 -25.5q-25 -15 -57 -27.5
t-66.5 -19.5t-69.5 -7q-72 0 -136 25t-113 72t-77.5 113.5t-28.5 149.5q0 78 27 143t75.5 113t113 75t139.5 27q52 0 101.5 -14t90.5 -40zM385 743q-13 0 -20 7t-7 17q0 6 3 11t8 10l88 72q8 6 17 10.5t19 4.5q14 0 26 -10.5t12 -26.5q0 -12 -6.5 -22t-19.5 -16l-98 -50
q-5 -3 -11 -5t-11 -2z" />
    <glyph glyph-name="cacute" unicode="&#x107;" horiz-adv-x="519" 
d="M304 530q51 0 92 -11t65 -30t24 -43q0 -13 -9 -25t-24 -12q-14 0 -22.5 5t-16 13t-20.5 14q-12 7 -35 11t-46 4q-55 0 -96.5 -26t-65.5 -70t-24 -100t23 -100t64 -70t95 -26q35 0 56 6t35 14q18 10 27.5 20t25.5 10q17 0 26.5 -11t9.5 -27q0 -18 -25 -38t-67.5 -34
t-96.5 -14q-76 0 -133 35.5t-88.5 97t-31.5 137.5t32.5 137t90.5 97t135 36zM296 558q-7 0 -14.5 6t-7.5 16q0 7 6 16l60 98q6 10 16 19t24 9q20 0 30 -10.5t10 -27.5q-1 -8 -4 -15t-9 -15l-76 -80q-7 -8 -16.5 -12t-18.5 -4z" />
    <glyph glyph-name="Ccircumflex" unicode="&#x108;" horiz-adv-x="645" 
d="M592 654q17 -9 19.5 -27t-9.5 -33q-9 -13 -23 -14t-28 6q-33 20 -71 31.5t-80 11.5q-59 0 -108 -20.5t-85 -57.5t-56 -88t-20 -113q0 -66 21 -118t57.5 -88.5t85 -55.5t105.5 -19q41 0 79 11t72 32q14 7 28 5t24 -14q12 -16 9 -33.5t-19 -25.5q-25 -15 -57 -27.5
t-66.5 -19.5t-69.5 -7q-72 0 -136 25t-113 72t-77.5 113.5t-28.5 149.5q0 78 27 143t75.5 113t113 75t139.5 27q52 0 101.5 -14t90.5 -40zM393 833l-87 -63q-11 -7 -19 -11.5t-16 -4.5q-9 0 -15 6t-6 13q0 5 2 9.5t8 11.5l72 79q10 10 19.5 15t23.5 5h13q14 0 23.5 -5
t18.5 -15l72 -79q6 -6 8.5 -10.5t2.5 -10.5t-6 -12t-16 -6q-7 0 -15.5 4.5t-19.5 11.5l-87 60z" />
    <glyph glyph-name="ccircumflex" unicode="&#x109;" horiz-adv-x="519" 
d="M304 530q51 0 92 -11t65 -30t24 -43q0 -13 -9 -25t-24 -12q-14 0 -22.5 5t-16 13t-20.5 14q-12 7 -35 11t-46 4q-55 0 -96.5 -26t-65.5 -70t-24 -100t23 -100t64 -70t95 -26q35 0 56 6t35 14q18 10 27.5 20t25.5 10q17 0 26.5 -11t9.5 -27q0 -18 -25 -38t-67.5 -34
t-96.5 -14q-76 0 -133 35.5t-88.5 97t-31.5 137.5t32.5 137t90.5 97t135 36zM317 671l-84 -70q-9 -8 -15.5 -12.5t-18.5 -4.5q-9 0 -15 5.5t-6 12.5q0 6 2 10.5t7 11.5l65 74q16 20 43 20h23q14 0 22.5 -4t16.5 -16l62 -74q6 -6 7.5 -11t1.5 -10q0 -7 -5.5 -13t-15.5 -6
q-11 0 -17.5 5t-16.5 12l-87 73z" />
    <glyph glyph-name="Cdotaccent" unicode="&#x10a;" horiz-adv-x="645" 
d="M592 654q17 -9 19.5 -27t-9.5 -33q-9 -13 -23 -14t-28 6q-33 20 -71 31.5t-80 11.5q-59 0 -108 -20.5t-85 -57.5t-56 -88t-20 -113q0 -66 21 -118t57.5 -88.5t85 -55.5t105.5 -19q41 0 79 11t72 32q14 7 28 5t24 -14q12 -16 9 -33.5t-19 -25.5q-25 -15 -57 -27.5
t-66.5 -19.5t-69.5 -7q-72 0 -136 25t-113 72t-77.5 113.5t-28.5 149.5q0 78 27 143t75.5 113t113 75t139.5 27q52 0 101.5 -14t90.5 -40zM371 760q-24 0 -36 10.5t-12 32.5v14q0 22 13 32.5t36 10.5q25 0 37 -10.5t12 -32.5v-14q0 -22 -12.5 -32.5t-37.5 -10.5z" />
    <glyph glyph-name="cdotaccent" unicode="&#x10b;" horiz-adv-x="519" 
d="M304 530q51 0 92 -11t65 -30t24 -43q0 -13 -9 -25t-24 -12q-14 0 -22.5 5t-16 13t-20.5 14q-12 7 -35 11t-46 4q-55 0 -96.5 -26t-65.5 -70t-24 -100t23 -100t64 -70t95 -26q35 0 56 6t35 14q18 10 27.5 20t25.5 10q17 0 26.5 -11t9.5 -27q0 -18 -25 -38t-67.5 -34
t-96.5 -14q-76 0 -133 35.5t-88.5 97t-31.5 137.5t32.5 137t90.5 97t135 36zM302 592q-25 0 -37 10t-12 31v14q0 21 13 31t37 10t36 -10t12 -31v-14q0 -21 -12.5 -31t-36.5 -10z" />
    <glyph glyph-name="Ccaron" unicode="&#x10c;" horiz-adv-x="645" 
d="M592 654q17 -9 19.5 -27t-9.5 -33q-9 -13 -23 -14t-28 6q-33 20 -71 31.5t-80 11.5q-59 0 -108 -20.5t-85 -57.5t-56 -88t-20 -113q0 -66 21 -118t57.5 -88.5t85 -55.5t105.5 -19q41 0 79 11t72 32q14 7 28 5t24 -14q12 -16 9 -33.5t-19 -25.5q-25 -15 -57 -27.5
t-66.5 -19.5t-69.5 -7q-72 0 -136 25t-113 72t-77.5 113.5t-28.5 149.5q0 78 27 143t75.5 113t113 75t139.5 27q52 0 101.5 -14t90.5 -40zM370 809l87 65q11 8 19.5 11.5t15.5 3.5q9 0 15 -6t6 -13q0 -5 -2 -9.5t-8 -11.5l-72 -79q-9 -10 -19 -15t-24 -5h-13q-14 0 -23.5 5
t-18.5 15l-72 79q-6 7 -8.5 11.5t-2.5 9.5q0 7 6.5 12.5t15.5 5.5q13 0 35 -15l87 -62z" />
    <glyph glyph-name="ccaron" unicode="&#x10d;" horiz-adv-x="519" 
d="M304 530q51 0 92 -11t65 -30t24 -43q0 -13 -9 -25t-24 -12q-14 0 -22.5 5t-16 13t-20.5 14q-12 7 -35 11t-46 4q-55 0 -96.5 -26t-65.5 -70t-24 -100t23 -100t64 -70t95 -26q35 0 56 6t35 14q18 10 27.5 20t25.5 10q17 0 26.5 -11t9.5 -27q0 -18 -25 -38t-67.5 -34
t-96.5 -14q-76 0 -133 35.5t-88.5 97t-31.5 137.5t32.5 137t90.5 97t135 36zM289 579q-27 0 -42 21l-63 70q-9 11 -9 22q0 9 7 15t20 6q12 0 32 -17l78 -63l-19 -1l76 65q9 8 17 12t20 4q9 0 15.5 -5.5t6.5 -13.5q0 -5 -2.5 -10.5t-8.5 -12.5l-62 -71q-16 -21 -43 -21h-23z
" />
    <glyph glyph-name="Dcaron" unicode="&#x10e;" horiz-adv-x="718" 
d="M378 700q73 0 128.5 -27.5t92.5 -76.5t55.5 -112.5t18.5 -133.5q0 -96 -33 -175.5t-98 -127t-164 -47.5h-250q-17 0 -28.5 12t-11.5 29v619q0 17 11.5 28.5t28.5 11.5h250zM368 78q77 0 125.5 37t71 99t22.5 136q0 54 -12.5 103.5t-39 87.5t-68 60t-99.5 22h-205l8 8
v-563l-6 10h203zM299 809l87 65q11 8 19.5 11.5t15.5 3.5q9 0 15 -6t6 -13q0 -5 -2 -9.5t-8 -11.5l-72 -79q-9 -10 -19 -15t-24 -5h-13q-14 0 -23.5 5t-18.5 15l-72 79q-6 7 -8.5 11.5t-2.5 9.5q0 7 6.5 12.5t15.5 5.5q13 0 35 -15l87 -62z" />
    <glyph glyph-name="dcaron" unicode="&#x10f;" horiz-adv-x="654" 
d="M500 740q17 0 28.5 -11.5t11.5 -28.5v-659q0 -17 -11.5 -29t-28.5 -12q-18 0 -29 12t-11 29v95l19 7q0 -24 -15 -50.5t-41 -49.5t-61.5 -38t-76.5 -15q-67 0 -121.5 35t-86 96t-31.5 139q0 79 31.5 140t85.5 95.5t120 34.5q42 0 79 -14t64.5 -38t43.5 -53t16 -58l-26 6
v327q0 17 11 28.5t29 11.5zM294 64q50 0 88.5 25.5t60 70t21.5 100.5q0 57 -21.5 101t-60 69.5t-88.5 25.5q-49 0 -87.5 -25.5t-60.5 -69.5t-22 -101q0 -55 22 -99.5t60.5 -70.5t87.5 -26zM722 666q0 -29 -16.5 -57.5t-41.5 -47t-51 -18.5q-9 0 -18 6.5t-9 22.5q0 17 11 20
t24 9q15 8 23.5 19.5t8.5 26.5q0 12 -8.5 19.5t-20.5 7.5q-7 0 -14.5 -2t-12.5 -6q-7 5 -12 12t-5 18q1 22 22 37.5t48 15.5q32 0 52 -24t20 -59z" />
    <glyph glyph-name="Dcroat" unicode="&#x110;" horiz-adv-x="718" 
d="M378 700q73 0 128.5 -27.5t92.5 -76.5t55.5 -112.5t18.5 -133.5q0 -96 -33 -175.5t-98 -127t-164 -47.5h-250q-17 0 -28.5 12t-11.5 29v619q0 17 11.5 28.5t28.5 11.5h250zM368 78q77 0 125.5 37t71 99t22.5 136q0 54 -12.5 103.5t-39 87.5t-68 60t-99.5 22h-205l8 8
v-563l-6 10h203zM51 315q-18 0 -29.5 10t-11.5 27q0 16 11.5 26.5t29.5 10.5h167q18 0 29 -10.5t11 -26.5q0 -17 -11 -27t-29 -10h-167z" />
    <glyph glyph-name="dcroat" unicode="&#x111;" horiz-adv-x="614" 
d="M500 740q17 0 28.5 -11.5t11.5 -28.5v-659q0 -17 -11.5 -29t-28.5 -12q-18 0 -29 12t-11 29v95l19 7q0 -24 -15 -50.5t-41 -49.5t-61.5 -38t-76.5 -15q-67 0 -121.5 35t-86 96t-31.5 139q0 79 31.5 140t85.5 95.5t120 34.5q42 0 79 -14t64.5 -38t43.5 -53t16 -58l-26 6
v327q0 17 11 28.5t29 11.5zM294 64q50 0 88.5 25.5t60 70t21.5 100.5q0 57 -21.5 101t-60 69.5t-88.5 25.5q-49 0 -87.5 -25.5t-60.5 -69.5t-22 -101q0 -55 22 -99.5t60.5 -70.5t87.5 -26zM398 579q-18 0 -29.5 10t-11.5 27q0 16 11.5 26.5t29.5 10.5h167q18 0 29 -10.5
t11 -26.5q0 -17 -11 -27t-29 -10h-167z" />
    <glyph glyph-name="Emacron" unicode="&#x112;" horiz-adv-x="570" 
d="M128 700h356q17 0 29 -11t12 -28t-12 -27.5t-29 -10.5h-322l9 17v-253l-10 11h278q17 0 29 -11t12 -28t-12 -27.5t-29 -10.5h-275l7 9v-259l-6 7h319q17 0 29 -12t12 -27q0 -17 -12 -28t-29 -11h-356q-17 0 -28.5 12t-11.5 29v619q0 17 11.5 28.5t28.5 11.5zM191 776
q-36 0 -36 31q0 32 36 32h251q36 0 36 -32q0 -31 -36 -31h-251z" />
    <glyph glyph-name="emacron" unicode="&#x113;" horiz-adv-x="573" 
d="M313 -10q-80 0 -140 34t-93.5 93.5t-33.5 137.5q0 87 34.5 148.5t90 94t117.5 32.5q46 0 89 -17t76 -49.5t53 -78t21 -101.5q0 -16 -12 -27t-28 -11h-395l-18 69h385l-16 -14v22q-4 41 -27.5 70.5t-57 45.5t-70.5 16q-30 0 -59.5 -10.5t-53 -34t-38 -60.5t-14.5 -89
q0 -58 23.5 -102t65.5 -69.5t98 -25.5q35 0 61 9t45 22.5t32 27.5q13 9 25 9q15 0 24.5 -10t9.5 -24q0 -17 -16 -30q-28 -31 -76 -54.5t-102 -23.5zM167 603q-35 0 -35 33q0 32 35 32h241q35 0 35 -32q0 -33 -35 -33h-241z" />
    <glyph glyph-name="Ebreve" unicode="&#x114;" horiz-adv-x="570" 
d="M128 700h356q17 0 29 -11t12 -28t-12 -27.5t-29 -10.5h-322l9 17v-253l-10 11h278q17 0 29 -11t12 -28t-12 -27.5t-29 -10.5h-275l7 9v-259l-6 7h319q17 0 29 -12t12 -27q0 -17 -12 -28t-29 -11h-356q-17 0 -28.5 12t-11.5 29v619q0 17 11.5 28.5t28.5 11.5zM314 770
q-53 0 -90.5 25.5t-53.5 72.5q-6 17 1 27.5t21 10.5q16 0 23.5 -6.5t16.5 -19.5q13 -24 33 -36t49 -12q58 0 82 48q8 12 16.5 19t23.5 7t22 -10t1 -27q-16 -48 -53.5 -73.5t-91.5 -25.5z" />
    <glyph glyph-name="ebreve" unicode="&#x115;" horiz-adv-x="573" 
d="M313 -10q-80 0 -140 34t-93.5 93.5t-33.5 137.5q0 87 34.5 148.5t90 94t117.5 32.5q46 0 89 -17t76 -49.5t53 -78t21 -101.5q0 -16 -12 -27t-28 -11h-395l-18 69h385l-16 -14v22q-4 41 -27.5 70.5t-57 45.5t-70.5 16q-30 0 -59.5 -10.5t-53 -34t-38 -60.5t-14.5 -89
q0 -58 23.5 -102t65.5 -69.5t98 -25.5q35 0 61 9t45 22.5t32 27.5q13 9 25 9q15 0 24.5 -10t9.5 -24q0 -17 -16 -30q-28 -31 -76 -54.5t-102 -23.5zM284 572q-35 0 -64.5 14.5t-49 40t-25.5 57.5q-5 16 2.5 26t21.5 10q15 0 24 -7.5t16 -20.5q8 -28 28 -43t47 -15
q28 0 47.5 15.5t27.5 42.5q8 13 16.5 20.5t24.5 7.5q14 0 21.5 -10t2.5 -25q-6 -32 -25.5 -57.5t-49 -40.5t-65.5 -15z" />
    <glyph glyph-name="Edotaccent" unicode="&#x116;" horiz-adv-x="570" 
d="M128 700h356q17 0 29 -11t12 -28t-12 -27.5t-29 -10.5h-322l9 17v-253l-10 11h278q17 0 29 -11t12 -28t-12 -27.5t-29 -10.5h-275l7 9v-259l-6 7h319q17 0 29 -12t12 -27q0 -17 -12 -28t-29 -11h-356q-17 0 -28.5 12t-11.5 29v619q0 17 11.5 28.5t28.5 11.5zM313 760
q-24 0 -36 10.5t-12 32.5v14q0 22 13 32.5t36 10.5q25 0 37 -10.5t12 -32.5v-14q0 -22 -12.5 -32.5t-37.5 -10.5z" />
    <glyph glyph-name="edotaccent" unicode="&#x117;" horiz-adv-x="573" 
d="M313 -10q-80 0 -140 34t-93.5 93.5t-33.5 137.5q0 87 34.5 148.5t90 94t117.5 32.5q46 0 89 -17t76 -49.5t53 -78t21 -101.5q0 -16 -12 -27t-28 -11h-395l-18 69h385l-16 -14v22q-4 41 -27.5 70.5t-57 45.5t-70.5 16q-30 0 -59.5 -10.5t-53 -34t-38 -60.5t-14.5 -89
q0 -58 23.5 -102t65.5 -69.5t98 -25.5q35 0 61 9t45 22.5t32 27.5q13 9 25 9q15 0 24.5 -10t9.5 -24q0 -17 -16 -30q-28 -31 -76 -54.5t-102 -23.5zM289 592q-25 0 -37 10t-12 31v14q0 21 13 31t37 10t36 -10t12 -31v-14q0 -21 -12.5 -31t-36.5 -10z" />
    <glyph glyph-name="Eogonek" unicode="&#x118;" horiz-adv-x="577" 
d="M426 -196q-41 0 -72.5 25.5t-31.5 74.5q0 28 13 50t34 38t45 27t47 18v-37h-333q-17 0 -28.5 12t-11.5 29v619q0 17 11.5 28.5t28.5 11.5h356q17 0 29 -11t12 -28q0 -15 -12 -26.5t-29 -11.5h-322l9 17v-253l-10 11h278q17 0 29 -11t12 -28q0 -15 -12 -26.5t-29 -11.5
h-275l7 9v-259l-6 7h319q17 0 29 -11t12 -28t-11.5 -26.5t-30.5 -12.5q-24 -4 -45 -16t-34.5 -28.5t-13.5 -36.5q0 -24 13.5 -37t29.5 -13q20 0 27 12q6 9 15 12.5t16 3.5q12 0 20.5 -8.5t8.5 -22.5t-13 -28.5t-34.5 -24t-46.5 -9.5z" />
    <glyph glyph-name="eogonek" unicode="&#x119;" horiz-adv-x="573" 
d="M420 -196q-27 0 -51 11.5t-39.5 33.5t-15.5 55q0 29 11 51t29.5 38t40.5 28t45 21l-38 -34q-20 -8 -43 -13t-46 -5q-80 0 -140 34t-93.5 93.5t-33.5 137.5q0 87 34.5 148.5t90 94t117.5 32.5q46 0 89 -17t76 -49.5t53 -78t21 -101.5q0 -16 -12 -27t-28 -11h-396l-14 69
h384l-18 -16v24q-4 41 -27.5 70.5t-57 45.5t-70.5 16q-44 0 -81.5 -20t-60.5 -63t-23 -111q0 -58 23.5 -102t65.5 -69.5t98 -25.5q35 0 61 9t45 22.5t32 27.5q13 10 25 10q17 0 26.5 -12.5t9.5 -24.5q0 -6 -3.5 -13.5t-13.5 -15.5q-26 -27 -51.5 -49.5t-41.5 -46.5t-16 -53
q0 -22 13 -35.5t32 -13.5q18 0 26 12q7 9 15.5 12.5t15.5 3.5q13 0 21.5 -8t8.5 -23q0 -13 -14 -27.5t-36 -24.5t-45 -10z" />
    <glyph glyph-name="Ecaron" unicode="&#x11a;" horiz-adv-x="570" 
d="M128 700h356q17 0 29 -11t12 -28t-12 -27.5t-29 -10.5h-322l9 17v-253l-10 11h278q17 0 29 -11t12 -28t-12 -27.5t-29 -10.5h-275l7 9v-259l-6 7h319q17 0 29 -12t12 -27q0 -17 -12 -28t-29 -11h-356q-17 0 -28.5 12t-11.5 29v619q0 17 11.5 28.5t28.5 11.5zM303 809
l87 65q11 8 19.5 11.5t15.5 3.5q9 0 15 -6t6 -13q0 -5 -2 -9.5t-8 -11.5l-72 -79q-9 -10 -19 -15t-24 -5h-13q-14 0 -23.5 5t-18.5 15l-72 79q-6 7 -8.5 11.5t-2.5 9.5q0 7 6.5 12.5t15.5 5.5q13 0 35 -15l87 -62z" />
    <glyph glyph-name="ecaron" unicode="&#x11b;" horiz-adv-x="573" 
d="M313 -10q-80 0 -140 34t-93.5 93.5t-33.5 137.5q0 87 34.5 148.5t90 94t117.5 32.5q46 0 89 -17t76 -49.5t53 -78t21 -101.5q0 -16 -12 -27t-28 -11h-395l-18 69h385l-16 -14v22q-4 41 -27.5 70.5t-57 45.5t-70.5 16q-30 0 -59.5 -10.5t-53 -34t-38 -60.5t-14.5 -89
q0 -58 23.5 -102t65.5 -69.5t98 -25.5q35 0 61 9t45 22.5t32 27.5q13 9 25 9q15 0 24.5 -10t9.5 -24q0 -17 -16 -30q-28 -31 -76 -54.5t-102 -23.5zM276 579q-27 0 -42 21l-63 70q-9 11 -9 22q0 9 7 15t20 6q12 0 32 -17l78 -63l-19 -1l76 65q9 8 17 12t20 4q9 0 15.5 -5.5
t6.5 -13.5q0 -5 -2.5 -10.5t-8.5 -12.5l-62 -71q-16 -21 -43 -21h-23z" />
    <glyph glyph-name="Gcircumflex" unicode="&#x11c;" horiz-adv-x="695" 
d="M407 -10q-77 0 -142.5 27.5t-115 76.5t-77 114.5t-27.5 141.5q0 77 27.5 142.5t77 114.5t115 76t142.5 27q51 0 98.5 -11.5t86.5 -35.5q10 -5 14.5 -14t4.5 -19q0 -17 -11.5 -29t-26.5 -12q-6 0 -11.5 2t-11.5 4q-31 16 -67 25.5t-76 9.5q-79 0 -141.5 -37t-98.5 -100
t-36 -143q0 -79 36 -142.5t98.5 -100.5t141.5 -37q40 0 82.5 11t72.5 28l-7 -24v211l16 -14h-153q-17 0 -28.5 11.5t-11.5 28.5t11.5 28.5t28.5 11.5h182q18 0 29 -12t11 -29v-231q0 -12 -5.5 -21t-14.5 -15q-45 -29 -99.5 -46.5t-113.5 -17.5zM394 833l-87 -63
q-11 -7 -19 -11.5t-16 -4.5q-9 0 -15 6t-6 13q0 5 2 9.5t8 11.5l72 79q10 10 19.5 15t23.5 5h13q14 0 23.5 -5t18.5 -15l72 -79q6 -6 8.5 -10.5t2.5 -10.5t-6 -12t-16 -6q-7 0 -15.5 4.5t-19.5 11.5l-87 60z" />
    <glyph glyph-name="gcircumflex" unicode="&#x11d;" horiz-adv-x="629" 
d="M291 530q43 0 80 -14.5t64.5 -37.5t43 -48t15.5 -47l-19 12v87q0 17 11 28.5t29 11.5q17 0 28.5 -11.5t11.5 -28.5v-438q0 -82 -34.5 -136t-92.5 -81t-130 -27q-30 0 -66 8t-64 19.5t-36 23.5q-15 10 -18.5 22.5t4.5 23.5q9 14 23.5 14t36.5 -9q9 -3 28.5 -10t44 -12.5
t48.5 -5.5q85 0 130.5 44.5t45.5 117.5v93l11 -5q-6 -28 -24.5 -52t-45 -42.5t-58.5 -29t-65 -10.5q-70 0 -126 35t-88.5 96t-32.5 139q0 79 32.5 140t88 95.5t124.5 34.5zM301 456q-51 0 -91.5 -25.5t-63 -69.5t-22.5 -101q0 -55 22.5 -99.5t63 -70.5t91.5 -26
q52 0 92 25.5t63 69.5t23 101q0 58 -23 102t-63 69t-92 25zM332 671l-84 -70q-9 -8 -15.5 -12.5t-18.5 -4.5q-9 0 -15 5.5t-6 12.5q0 6 2 10.5t7 11.5l65 74q16 20 43 20h23q14 0 22.5 -4t16.5 -16l62 -74q6 -6 7.5 -11t1.5 -10q0 -7 -5.5 -13t-15.5 -6q-11 0 -17.5 5
t-16.5 12l-87 73z" />
    <glyph glyph-name="Gbreve" unicode="&#x11e;" horiz-adv-x="695" 
d="M407 -10q-77 0 -142.5 27.5t-115 76.5t-77 114.5t-27.5 141.5q0 77 27.5 142.5t77 114.5t115 76t142.5 27q51 0 98.5 -11.5t86.5 -35.5q10 -5 14.5 -14t4.5 -19q0 -17 -11.5 -29t-26.5 -12q-6 0 -11.5 2t-11.5 4q-31 16 -67 25.5t-76 9.5q-79 0 -141.5 -37t-98.5 -100
t-36 -143q0 -79 36 -142.5t98.5 -100.5t141.5 -37q40 0 82.5 11t72.5 28l-7 -24v211l16 -14h-153q-17 0 -28.5 11.5t-11.5 28.5t11.5 28.5t28.5 11.5h182q18 0 29 -12t11 -29v-231q0 -12 -5.5 -21t-14.5 -15q-45 -29 -99.5 -46.5t-113.5 -17.5zM383 770q-53 0 -90.5 25.5
t-53.5 72.5q-6 17 1 27.5t21 10.5q16 0 23.5 -6.5t16.5 -19.5q13 -24 33 -36t49 -12q58 0 82 48q8 12 16.5 19t23.5 7t22 -10t1 -27q-16 -48 -53.5 -73.5t-91.5 -25.5z" />
    <glyph glyph-name="gbreve" unicode="&#x11f;" horiz-adv-x="629" 
d="M291 530q43 0 80 -14.5t64.5 -37.5t43 -48t15.5 -47l-19 12v87q0 17 11 28.5t29 11.5q17 0 28.5 -11.5t11.5 -28.5v-438q0 -82 -34.5 -136t-92.5 -81t-130 -27q-30 0 -66 8t-64 19.5t-36 23.5q-15 10 -18.5 22.5t4.5 23.5q9 14 23.5 14t36.5 -9q9 -3 28.5 -10t44 -12.5
t48.5 -5.5q85 0 130.5 44.5t45.5 117.5v93l11 -5q-6 -28 -24.5 -52t-45 -42.5t-58.5 -29t-65 -10.5q-70 0 -126 35t-88.5 96t-32.5 139q0 79 32.5 140t88 95.5t124.5 34.5zM301 456q-51 0 -91.5 -25.5t-63 -69.5t-22.5 -101q0 -55 22.5 -99.5t63 -70.5t91.5 -26
q52 0 92 25.5t63 69.5t23 101q0 58 -23 102t-63 69t-92 25zM312 572q-35 0 -64.5 14.5t-49 40t-25.5 57.5q-5 16 2.5 26t21.5 10q15 0 24 -7.5t16 -20.5q8 -28 28 -43t47 -15q28 0 47.5 15.5t27.5 42.5q8 13 16.5 20.5t24.5 7.5q14 0 21.5 -10t2.5 -25q-6 -32 -25.5 -57.5
t-49 -40.5t-65.5 -15z" />
    <glyph glyph-name="Gdotaccent" unicode="&#x120;" horiz-adv-x="695" 
d="M407 -10q-77 0 -142.5 27.5t-115 76.5t-77 114.5t-27.5 141.5q0 77 27.5 142.5t77 114.5t115 76t142.5 27q51 0 98.5 -11.5t86.5 -35.5q10 -5 14.5 -14t4.5 -19q0 -17 -11.5 -29t-26.5 -12q-6 0 -11.5 2t-11.5 4q-31 16 -67 25.5t-76 9.5q-79 0 -141.5 -37t-98.5 -100
t-36 -143q0 -79 36 -142.5t98.5 -100.5t141.5 -37q40 0 82.5 11t72.5 28l-7 -24v211l16 -14h-153q-17 0 -28.5 11.5t-11.5 28.5t11.5 28.5t28.5 11.5h182q18 0 29 -12t11 -29v-231q0 -12 -5.5 -21t-14.5 -15q-45 -29 -99.5 -46.5t-113.5 -17.5zM382 760q-24 0 -36 10.5
t-12 32.5v14q0 22 13 32.5t36 10.5q25 0 37 -10.5t12 -32.5v-14q0 -22 -12.5 -32.5t-37.5 -10.5z" />
    <glyph glyph-name="gdotaccent" unicode="&#x121;" horiz-adv-x="629" 
d="M291 530q43 0 80 -14.5t64.5 -37.5t43 -48t15.5 -47l-19 12v87q0 17 11 28.5t29 11.5q17 0 28.5 -11.5t11.5 -28.5v-438q0 -82 -34.5 -136t-92.5 -81t-130 -27q-30 0 -66 8t-64 19.5t-36 23.5q-15 10 -18.5 22.5t4.5 23.5q9 14 23.5 14t36.5 -9q9 -3 28.5 -10t44 -12.5
t48.5 -5.5q85 0 130.5 44.5t45.5 117.5v93l11 -5q-6 -28 -24.5 -52t-45 -42.5t-58.5 -29t-65 -10.5q-70 0 -126 35t-88.5 96t-32.5 139q0 79 32.5 140t88 95.5t124.5 34.5zM301 456q-51 0 -91.5 -25.5t-63 -69.5t-22.5 -101q0 -55 22.5 -99.5t63 -70.5t91.5 -26
q52 0 92 25.5t63 69.5t23 101q0 58 -23 102t-63 69t-92 25zM317 592q-25 0 -37 10t-12 31v14q0 21 13 31t37 10t36 -10t12 -31v-14q0 -21 -12.5 -31t-36.5 -10z" />
    <glyph glyph-name="uni0122" unicode="&#x122;" horiz-adv-x="695" 
d="M407 -10q-77 0 -142.5 27.5t-115 76.5t-77 114.5t-27.5 141.5q0 77 27.5 142.5t77 114.5t115 76t142.5 27q51 0 98.5 -11.5t86.5 -35.5q10 -5 14.5 -14t4.5 -19q0 -17 -11.5 -29t-26.5 -12q-6 0 -11.5 2t-11.5 4q-31 16 -67 25.5t-76 9.5q-79 0 -141.5 -37t-98.5 -100
t-36 -143q0 -79 36 -142.5t98.5 -100.5t141.5 -37q40 0 82.5 11t72.5 28l-7 -24v211l16 -14h-153q-17 0 -28.5 11.5t-11.5 28.5t11.5 28.5t28.5 11.5h182q18 0 29 -12t11 -29v-231q0 -12 -5.5 -21t-14.5 -15q-45 -29 -99.5 -46.5t-113.5 -17.5zM463 -106q0 -21 -12 -39.5
t-31 -30.5t-43 -12q-20 0 -29.5 7.5t-9.5 16.5q0 11 5.5 15.5t11.5 4.5q5 0 12 -2t18 -1q9 1 15 8.5t6 21.5q0 13 -10 13q-7 0 -10 -4.5t-14 -4.5q-14 0 -22 9.5t-8 22.5q0 19 16 30t42 11q27 0 45 -17t18 -49z" />
    <glyph glyph-name="uni0123" unicode="&#x123;" horiz-adv-x="629" 
d="M291 530q43 0 80 -14.5t64.5 -37.5t43 -48t15.5 -47l-19 12v87q0 17 11 28.5t29 11.5q17 0 28.5 -11.5t11.5 -28.5v-438q0 -82 -34.5 -136t-92.5 -81t-130 -27q-30 0 -66 8t-64 19.5t-36 23.5q-15 10 -18.5 22.5t4.5 23.5q9 14 23.5 14t36.5 -9q9 -3 28.5 -10t44 -12.5
t48.5 -5.5q85 0 130.5 44.5t45.5 117.5v93l11 -5q-6 -28 -24.5 -52t-45 -42.5t-58.5 -29t-65 -10.5q-70 0 -126 35t-88.5 96t-32.5 139q0 79 32.5 140t88 95.5t124.5 34.5zM301 456q-51 0 -91.5 -25.5t-63 -69.5t-22.5 -101q0 -55 22.5 -99.5t63 -70.5t91.5 -26
q52 0 92 25.5t63 69.5t23 101q0 58 -23 102t-63 69t-92 25zM243 663q0 30 16.5 58t42 46.5t50.5 18.5q9 0 18 -6.5t9 -22.5q0 -17 -10.5 -20t-24.5 -9q-15 -8 -23.5 -19.5t-8.5 -26.5q0 -11 8.5 -19t20.5 -8q7 0 14.5 2t12.5 6q8 -5 12.5 -12t4.5 -18q-1 -22 -22 -37.5
t-48 -15.5q-32 0 -52 24t-20 59z" />
    <glyph glyph-name="Hcircumflex" unicode="&#x124;" horiz-adv-x="720" 
d="M130 700q17 0 29 -11.5t12 -29.5v-618q0 -17 -12.5 -29t-29.5 -12q-19 0 -30 12t-11 29v618q0 18 12 29.5t30 11.5zM591 700q18 0 29.5 -11.5t11.5 -29.5v-618q0 -17 -12 -29t-30 -12q-17 0 -29 12t-12 29v618q0 18 12.5 29.5t29.5 11.5zM126 395h466l-1 -78h-468z
M371 833l-87 -63q-11 -7 -19 -11.5t-16 -4.5q-9 0 -15 6t-6 13q0 5 2 9.5t8 11.5l72 79q10 10 19.5 15t23.5 5h13q14 0 23.5 -5t18.5 -15l72 -79q6 -6 8.5 -10.5t2.5 -10.5t-6 -12t-16 -6q-7 0 -15.5 4.5t-19.5 11.5l-87 60z" />
    <glyph glyph-name="hcircumflex" unicode="&#x125;" horiz-adv-x="574" 
d="M324 525q66 0 104.5 -28.5t55 -76t16.5 -105.5v-274q0 -17 -11.5 -29t-28.5 -12t-28.5 12t-11.5 29v274q0 38 -11 68.5t-36.5 49t-69.5 18.5q-41 0 -75 -18.5t-54 -49t-20 -68.5v-274q0 -17 -11.5 -29t-28.5 -12t-28.5 12t-11.5 29v659q0 17 11.5 28.5t28.5 11.5
q18 0 29 -11.5t11 -28.5v-299l-20 -22q5 26 22 52.5t43 47.5t58 33.5t67 12.5zM125 853l-87 -63q-11 -7 -19 -11.5t-16 -4.5q-9 0 -15 6t-6 13q0 5 2 9.5t8 11.5l72 79q10 10 19.5 15t23.5 5h13q14 0 23.5 -5t18.5 -15l72 -79q6 -6 8.5 -10.5t2.5 -10.5t-6 -12t-16 -6
q-7 0 -15.5 4.5t-19.5 11.5l-87 60z" />
    <glyph glyph-name="Hbar" unicode="&#x126;" horiz-adv-x="823" 
d="M106 490q-15 0 -25.5 10t-10.5 25t10.5 25t25.5 10h612q15 0 25 -10t10 -26q0 -15 -10 -24.5t-25 -9.5h-612zM182 700q16 0 28.5 -11.5t12.5 -29.5v-618q-1 -17 -13.5 -29t-28.5 -12q-19 0 -30.5 12t-11.5 29v618q0 18 12 29.5t31 11.5zM642 700q19 0 30.5 -11.5
t11.5 -29.5v-618q-1 -17 -12.5 -29t-30.5 -12q-17 0 -29 12t-12 29v618q0 18 12.5 29.5t29.5 11.5zM178 395h465l-1 -78h-467z" />
    <glyph glyph-name="hbar" unicode="&#x127;" horiz-adv-x="574" 
d="M324 525q66 0 104.5 -28.5t55 -76t16.5 -105.5v-274q0 -17 -11.5 -29t-28.5 -12t-28.5 12t-11.5 29v274q0 38 -11 68.5t-36.5 49t-69.5 18.5q-41 0 -75 -18.5t-54 -49t-20 -68.5v-274q0 -17 -11.5 -29t-28.5 -12t-28.5 12t-11.5 29v659q0 17 11.5 28.5t28.5 11.5
q18 0 29 -11.5t11 -28.5v-299l-20 -22q5 26 22 52.5t43 47.5t58 33.5t67 12.5zM43 557q-18 0 -29.5 10t-11.5 27q0 16 11.5 26.5t29.5 10.5h167q18 0 29 -10.5t11 -26.5q0 -17 -11 -27t-29 -10h-167z" />
    <glyph glyph-name="Itilde" unicode="&#x128;" horiz-adv-x="259" 
d="M171 41q0 -17 -12.5 -29t-29.5 -12q-19 0 -30 12t-11 29v618q0 18 12 29.5t30 11.5q17 0 29 -11.5t12 -29.5v-618zM0 759q-16 0 -25.5 14.5t-7.5 38.5q4 33 30 54t65 21q27 0 53.5 -15t50.5 -30t41 -15q13 0 21 9t8 24q-3 16 5 25t21 9q18 0 27 -14.5t8 -37.5
q-3 -20 -13.5 -38t-29 -28.5t-43.5 -10.5q-28 0 -56.5 14.5t-53 29t-42.5 14.5q-12 0 -21 -8t-11 -24q2 -15 -6.5 -23.5t-20.5 -8.5z" />
    <glyph glyph-name="itilde" unicode="&#x129;" horiz-adv-x="221" 
d="M151 41q0 -17 -11.5 -29t-28.5 -12q-18 0 -29 12t-11 29v444q0 17 11.5 28.5t28.5 11.5t28.5 -11.5t11.5 -28.5v-444zM-19 584q-18 0 -27 13.5t-7 38.5q5 32 31.5 53t69.5 21q21 0 40.5 -9t37 -20.5t33.5 -21t29 -9.5t20.5 8.5t7.5 23.5q-3 16 5.5 25t21.5 9
q19 0 27.5 -13.5t6.5 -36.5q-2 -21 -13.5 -38.5t-31.5 -28.5t-50 -11q-18 0 -37 9t-38.5 20.5t-36.5 20.5t-30 9t-21.5 -7.5t-10.5 -23.5q2 -15 -6.5 -23.5t-20.5 -8.5z" />
    <glyph glyph-name="Imacron" unicode="&#x12a;" horiz-adv-x="259" 
d="M171 41q0 -17 -12.5 -29t-29.5 -12q-19 0 -30 12t-11 29v618q0 18 12 29.5t30 11.5q17 0 29 -11.5t12 -29.5v-618zM7 776q-36 0 -36 31q0 32 36 32h251q36 0 36 -32q0 -31 -36 -31h-251z" />
    <glyph glyph-name="imacron" unicode="&#x12b;" horiz-adv-x="221" 
d="M151 41q0 -17 -11.5 -29t-28.5 -12q-18 0 -29 12t-11 29v444q0 17 11.5 28.5t28.5 11.5t28.5 -11.5t11.5 -28.5v-444zM-11 603q-35 0 -35 33q0 32 35 32h241q35 0 35 -32q0 -33 -35 -33h-241z" />
    <glyph glyph-name="Ibreve" unicode="&#x12c;" horiz-adv-x="259" 
d="M171 41q0 -17 -12.5 -29t-29.5 -12q-19 0 -30 12t-11 29v618q0 18 12 29.5t30 11.5q17 0 29 -11.5t12 -29.5v-618zM131 770q-53 0 -90.5 25.5t-53.5 72.5q-6 17 1 27.5t21 10.5q16 0 23.5 -6.5t16.5 -19.5q13 -24 33 -36t49 -12q58 0 82 48q8 12 16.5 19t23.5 7t22 -10
t1 -27q-16 -48 -53.5 -73.5t-91.5 -25.5z" />
    <glyph glyph-name="ibreve" unicode="&#x12d;" horiz-adv-x="221" 
d="M151 41q0 -17 -11.5 -29t-28.5 -12q-18 0 -29 12t-11 29v444q0 17 11.5 28.5t28.5 11.5t28.5 -11.5t11.5 -28.5v-444zM106 572q-35 0 -64.5 14.5t-49 40t-25.5 57.5q-5 16 2.5 26t21.5 10q15 0 24 -7.5t16 -20.5q8 -28 28 -43t47 -15q28 0 47.5 15.5t27.5 42.5
q8 13 16.5 20.5t24.5 7.5q14 0 21.5 -10t2.5 -25q-6 -32 -25.5 -57.5t-49 -40.5t-65.5 -15z" />
    <glyph glyph-name="Iogonek" unicode="&#x12e;" horiz-adv-x="250" 
d="M99 -196q-41 0 -72.5 25.5t-31.5 74.5q0 32 12 55t31.5 39.5t43 27.5t46.5 17l-6 -33l-35 18v631q0 18 12.5 29.5t30.5 11.5q19 0 31 -11.5t12 -29.5v-626q0 -10 -5 -18t-18 -13q-34 -11 -60.5 -32t-26.5 -51q0 -24 13.5 -37t29.5 -13q15 0 23 7t15.5 14t19.5 7
t20.5 -8.5t8.5 -22.5t-13 -28.5t-34.5 -24t-46.5 -9.5z" />
    <glyph glyph-name="iogonek" unicode="&#x12f;" horiz-adv-x="221" 
d="M88 -196q-41 0 -72.5 25.5t-31.5 74.5q0 32 12.5 53.5t33 36.5t46 24.5t49.5 16.5l-54 -27v477q0 17 11.5 28.5t28.5 11.5t28.5 -11.5t11.5 -28.5v-439q0 -20 -10 -32t-24.5 -21t-29.5 -17.5t-25 -22t-10 -34.5q0 -24 13.5 -37t29.5 -13q8 0 14.5 2t10.5 8q7 10 16 14
t17 4q12 0 20.5 -8.5t8.5 -22.5t-13 -28.5t-34.5 -24t-46.5 -9.5zM110 592q-25 0 -36.5 10t-11.5 31v13q0 22 12.5 31.5t36.5 9.5q25 0 36.5 -10t11.5 -31v-13q0 -22 -12 -31.5t-37 -9.5z" />
    <glyph glyph-name="Idotaccent" unicode="&#x130;" horiz-adv-x="259" 
d="M171 41q0 -17 -12.5 -29t-29.5 -12q-19 0 -30 12t-11 29v618q0 18 12 29.5t30 11.5q17 0 29 -11.5t12 -29.5v-618zM130 760q-24 0 -36 10.5t-12 32.5v14q0 22 13 32.5t36 10.5q25 0 37 -10.5t12 -32.5v-14q0 -22 -12.5 -32.5t-37.5 -10.5z" />
    <glyph glyph-name="dotlessi" unicode="&#x131;" horiz-adv-x="221" 
d="M151 41q0 -17 -11.5 -29t-28.5 -12q-18 0 -29 12t-11 29v444q0 17 11.5 28.5t28.5 11.5t28.5 -11.5t11.5 -28.5v-444z" />
    <glyph glyph-name="IJ" unicode="&#x132;" horiz-adv-x="595" 
d="M182 283q0 -17 -12.5 -29t-29.5 -12q-19 0 -30 12t-11 29v376q0 18 12 29.5t30 11.5q17 0 29 -11.5t12 -29.5v-376zM283 -10q-61 0 -110.5 31t-77.5 83q-7 12 -7 23q0 17 13 27.5t26 10.5q11 0 20.5 -6t16.5 -15q20 -34 50 -54t69 -20q41 0 72.5 18t50 49.5t18.5 71.5
v451q0 17 12.5 28.5t30.5 11.5t29.5 -11.5t11.5 -28.5v-451q0 -61 -29.5 -111t-80 -79t-115.5 -29z" />
    <glyph glyph-name="ij" unicode="&#x133;" horiz-adv-x="478" 
d="M151 41q0 -17 -11.5 -29t-28.5 -12q-18 0 -29 12t-11 29v444q0 17 11.5 28.5t28.5 11.5t28.5 -11.5t11.5 -28.5v-444zM111 592q-25 0 -37 10t-12 31v14q0 21 13 31t37 10t36 -10t12 -31v-14q0 -21 -12.5 -31t-36.5 -10zM374 -34q0 -51 -22.5 -87t-56.5 -56t-71 -20
q-17 0 -27.5 11t-10.5 26v7q0 15 10 24t25 13q23 6 39 18.5t25 33t9 48.5v493q0 17 11.5 29t28.5 12q18 0 29 -12t11 -29v-511zM334 592q-25 0 -37 10t-12 31v14q0 21 13 31t37 10t36 -10t12 -31v-14q0 -21 -12.5 -31t-36.5 -10z" />
    <glyph glyph-name="Jcircumflex" unicode="&#x134;" horiz-adv-x="565" 
d="M253 -10q-61 0 -110.5 31t-77.5 83q-7 12 -7 23q0 17 13 27.5t26 10.5q11 0 20.5 -6t16.5 -15q20 -34 50 -54t69 -20q41 0 72.5 18t50 49.5t18.5 71.5v451q0 17 12.5 28.5t30.5 11.5t29.5 -11.5t11.5 -28.5v-451q0 -61 -29.5 -111t-80 -79t-115.5 -29zM448 833l-87 -63
q-11 -7 -19 -11.5t-16 -4.5q-9 0 -15 6t-6 13q0 5 2 9.5t8 11.5l72 79q10 10 19.5 15t23.5 5h13q14 0 23.5 -5t18.5 -15l72 -79q6 -6 8.5 -10.5t2.5 -10.5t-6 -12t-16 -6q-7 0 -15.5 4.5t-19.5 11.5l-87 60z" />
    <glyph glyph-name="jcircumflex" unicode="&#x135;" horiz-adv-x="252" 
d="M168 -34q0 -51 -22.5 -87t-56.5 -56t-71 -20q-17 0 -27.5 11t-10.5 26v7q0 15 10 24t25 13q23 6 39 18.5t25 33t9 48.5v493q0 17 11.5 29t28.5 12q18 0 29 -12t11 -29v-511zM143 671l-84 -70q-9 -8 -15.5 -12.5t-18.5 -4.5q-9 0 -15 5.5t-6 12.5q0 6 2 10.5t7 11.5l65 74
q16 20 43 20h23q14 0 22.5 -4t16.5 -16l62 -74q6 -6 7.5 -11t1.5 -10q0 -7 -5.5 -13t-15.5 -6q-11 0 -17.5 5t-16.5 12l-87 73z" />
    <glyph glyph-name="uni0136" unicode="&#x136;" horiz-adv-x="669" 
d="M582 -2q-18 0 -30 15l-266 339l61 62l271 -347q9 -13 9 -27q0 -20 -14.5 -31t-30.5 -11zM579 701q16 0 26.5 -13t10.5 -27t-12 -26l-442 -418l-7 93l392 376q15 15 32 15zM129 0q-19 0 -30 12t-11 29v618q0 18 12 29.5t30 11.5q19 0 30 -11.5t11 -29.5v-618
q0 -17 -11.5 -29t-30.5 -12zM382 -106q0 -21 -12 -39.5t-31 -30.5t-43 -12q-20 0 -29.5 7.5t-9.5 16.5q0 11 5.5 15.5t11.5 4.5q5 0 12 -2t18 -1q9 1 15 8.5t6 21.5q0 13 -10 13q-7 0 -10 -4.5t-14 -4.5q-14 0 -22 9.5t-8 22.5q0 19 16 30t42 11q27 0 45 -17t18 -49z" />
    <glyph glyph-name="uni0137" unicode="&#x137;" horiz-adv-x="547" 
d="M122 0q-18 0 -29 12t-11 29v659q0 17 11 28.5t29 11.5q17 0 28.5 -11.5t11.5 -28.5v-659q0 -17 -11.5 -29t-28.5 -12zM454 520q16 0 27.5 -12.5t11.5 -25.5q0 -17 -16 -30l-324 -283l-3 93l276 246q12 12 28 12zM465 1q-17 0 -30 13l-213 227l60 55l211 -226
q12 -13 12 -30q0 -18 -14 -28.5t-26 -10.5zM337 -122q0 -29 -16.5 -57.5t-41.5 -47t-51 -18.5q-9 0 -18 6.5t-9 22.5q0 17 11 20t24 9q15 8 23.5 19.5t8.5 26.5q0 12 -8.5 19.5t-20.5 7.5q-7 0 -14.5 -2t-12.5 -6q-7 5 -12 12t-5 18q1 22 22 37.5t48 15.5q32 0 52 -24
t20 -59z" />
    <glyph glyph-name="kgreenlandic" unicode="&#x138;" horiz-adv-x="547" 
d="M122 0q-18 0 -29 12t-11 29v436q0 17 11 28.5t29 11.5q17 0 28.5 -11.5t11.5 -28.5v-436q0 -17 -11.5 -29t-28.5 -12zM454 520q16 0 27.5 -12.5t11.5 -25.5q0 -17 -16 -30l-324 -283l-3 93l276 246q12 12 28 12zM465 1q-17 0 -30 13l-213 227l60 55l211 -226
q12 -13 12 -30q0 -18 -14.5 -28.5t-25.5 -10.5z" />
    <glyph glyph-name="Lacute" unicode="&#x139;" horiz-adv-x="542" 
d="M474 79q17 0 29 -11.5t12 -28.5t-12 -28t-29 -11h-346q-17 0 -28.5 12t-11.5 29v619q0 17 12 28.5t30 11.5q17 0 29 -11.5t12 -28.5v-599l-20 18h323zM124 743q-13 0 -20 7t-7 17q0 6 3 11t8 10l88 72q8 6 17 10.5t19 4.5q14 0 26 -10.5t12 -26.5q0 -12 -6.5 -22
t-19.5 -16l-98 -50q-5 -3 -11 -5t-11 -2z" />
    <glyph glyph-name="lacute" unicode="&#x13a;" horiz-adv-x="243" 
d="M162 41q0 -17 -12 -29t-29 -12t-28 12t-11 29v659q0 17 11.5 28.5t28.5 11.5q18 0 29 -11.5t11 -28.5v-659zM125 783q-13 0 -20 7t-7 17q0 6 3 11t8 10l88 72q8 6 17 10.5t19 4.5q14 0 26 -10.5t12 -26.5q0 -12 -6.5 -22t-19.5 -16l-98 -50q-5 -3 -11 -5t-11 -2z" />
    <glyph glyph-name="uni013B" unicode="&#x13b;" horiz-adv-x="542" 
d="M474 79q17 0 29 -11.5t12 -28.5t-12 -28t-29 -11h-346q-17 0 -28.5 12t-11.5 29v619q0 17 12 28.5t30 11.5q17 0 29 -11.5t12 -28.5v-599l-20 18h323zM352 -106q0 -21 -12 -39.5t-31 -30.5t-43 -12q-20 0 -29.5 7.5t-9.5 16.5q0 11 5.5 15.5t11.5 4.5q5 0 12 -2t18 -1
q9 1 15 8.5t6 21.5q0 13 -10 13q-7 0 -10 -4.5t-14 -4.5q-14 0 -22 9.5t-8 22.5q0 19 16 30t42 11q27 0 45 -17t18 -49z" />
    <glyph glyph-name="uni013C" unicode="&#x13c;" horiz-adv-x="243" 
d="M162 41q0 -17 -12 -29t-29 -12t-28 12t-11 29v659q0 17 11.5 28.5t28.5 11.5q18 0 29 -11.5t11 -28.5v-659zM185 -122q0 -29 -16.5 -57.5t-41.5 -47t-51 -18.5q-9 0 -18 6.5t-9 22.5q0 17 11 20t24 9q15 8 23.5 19.5t8.5 26.5q0 12 -8.5 19.5t-20.5 7.5q-7 0 -14.5 -2
t-12.5 -6q-7 5 -12 12t-5 18q1 22 22 37.5t48 15.5q32 0 52 -24t20 -59z" />
    <glyph glyph-name="Lcaron" unicode="&#x13d;" horiz-adv-x="542" 
d="M474 79q17 0 29 -11.5t12 -28.5t-12 -28t-29 -11h-346q-17 0 -28.5 12t-11.5 29v619q0 17 12 28.5t30 11.5q17 0 29 -11.5t12 -28.5v-599l-20 18h323zM427 666q0 -29 -16.5 -57.5t-41.5 -47t-51 -18.5q-9 0 -18 6.5t-9 22.5q0 17 11 20t24 9q15 8 23.5 19.5t8.5 26.5
q0 12 -8.5 19.5t-20.5 7.5q-7 0 -14.5 -2t-12.5 -6q-7 5 -12 12t-5 18q1 22 22 37.5t48 15.5q32 0 52 -24t20 -59z" />
    <glyph glyph-name="lcaron" unicode="&#x13e;" horiz-adv-x="274" 
d="M162 41q0 -17 -12 -29t-29 -12t-28 12t-11 29v659q0 17 11.5 28.5t28.5 11.5q18 0 29 -11.5t11 -28.5v-659zM342 666q0 -29 -17 -57.5t-42 -47t-51 -18.5q-9 0 -18 6.5t-9 22.5q0 17 11 20t24 9q16 8 24.5 19.5t8.5 26.5q0 12 -8.5 19.5t-21.5 7.5q-6 0 -13.5 -2
t-13.5 -6q-7 5 -12 12t-4 18q1 22 21.5 37.5t47.5 15.5q33 0 53 -24t20 -59z" />
    <glyph glyph-name="Ldot" unicode="&#x13f;" horiz-adv-x="540" 
d="M474 79q17 0 29 -11.5t12 -28.5t-12 -28t-29 -11h-346q-17 0 -28.5 12t-11.5 29v619q0 17 12 28.5t30 11.5q17 0 29 -11.5t12 -28.5v-599l-20 18h323zM403 327q-21 0 -33.5 12t-12.5 33v20q0 22 12.5 34t33.5 12h8q22 0 34 -12t12 -34v-20q0 -21 -12 -33t-34 -12h-8z" />
    <glyph glyph-name="ldot" unicode="&#x140;" horiz-adv-x="338" 
d="M162 41q0 -17 -12 -29t-29 -12t-28 12t-11 29v659q0 17 11.5 28.5t28.5 11.5q18 0 29 -11.5t11 -28.5v-659zM289 328q-21 0 -33.5 12t-12.5 33v20q0 22 12.5 34t33.5 12h8q22 0 34 -12t12 -34v-20q0 -21 -12 -33t-34 -12h-8z" />
    <glyph glyph-name="Lslash" unicode="&#x141;" horiz-adv-x="597" 
d="M77 309q-17 0 -25.5 12t-8.5 24q0 22 22 32l247 109q9 4 16 4q18 0 26 -13t8 -23q0 -22 -22 -32l-247 -109q-4 -2 -8 -3t-8 -1zM223 71l-7 9h313q17 0 29 -11.5t12 -28.5t-12 -28.5t-29 -11.5h-346q-17 0 -28.5 12t-11.5 29v619q0 17 11.5 28.5t28.5 11.5q18 0 29 -11.5
t11 -28.5v-589z" />
    <glyph glyph-name="lslash" unicode="&#x142;" horiz-adv-x="244" 
d="M20 310q-15 0 -23.5 12t-8.5 23q0 21 22 31l200 92q4 2 9 3t10 1q15 0 23.5 -11.5t8.5 -21.5q0 -12 -6.5 -20.5t-16.5 -12.5l-200 -92q-5 -2 -9.5 -3t-8.5 -1zM162 41q0 -17 -12 -29t-29 -12t-28 12t-11 29v659q0 17 11.5 28.5t28.5 11.5q18 0 29 -11.5t11 -28.5v-659z
" />
    <glyph glyph-name="Nacute" unicode="&#x143;" horiz-adv-x="730" 
d="M606 700q17 0 27 -10.5t10 -26.5v-621q0 -19 -12 -30.5t-29 -11.5q-9 0 -18 3.5t-14 9.5l-428 566l20 12v-554q0 -16 -10.5 -26.5t-27.5 -10.5q-16 0 -26 10.5t-10 26.5v623q0 18 11.5 29t27.5 11q9 0 18.5 -3.5t14.5 -10.5l422 -558l-13 -16v551q0 16 10.5 26.5
t26.5 10.5zM369 743q-13 0 -20 7t-7 17q0 6 3 11t8 10l88 72q8 6 17 10.5t19 4.5q14 0 26 -10.5t12 -26.5q0 -12 -6.5 -22t-19.5 -16l-98 -50q-5 -3 -11 -5t-11 -2z" />
    <glyph glyph-name="nacute" unicode="&#x144;" horiz-adv-x="584" 
d="M331 530q68 0 107 -28t55.5 -75t16.5 -105v-281q0 -17 -11.5 -29t-28.5 -12t-28.5 12t-11.5 29v279q0 38 -11.5 68.5t-38 49t-72.5 18.5q-42 0 -77 -18.5t-56 -49t-21 -68.5v-279q0 -17 -11.5 -29t-28.5 -12t-28.5 12t-11.5 29v436q0 17 11.5 28.5t28.5 11.5
q18 0 29 -11.5t11 -28.5v-71l-20 -22q5 26 23 52.5t45 47.5t60 33.5t69 12.5zM299 558q-7 0 -14.5 6t-7.5 16q0 7 6 16l60 98q6 10 16 19t24 9q20 0 30 -10.5t10 -27.5q-1 -8 -4 -15t-9 -15l-76 -80q-7 -8 -16.5 -12t-18.5 -4z" />
    <glyph glyph-name="uni0145" unicode="&#x145;" horiz-adv-x="730" 
d="M606 700q17 0 27 -10.5t10 -26.5v-621q0 -19 -12 -30.5t-29 -11.5q-9 0 -18 3.5t-14 9.5l-428 566l20 12v-554q0 -16 -10.5 -26.5t-27.5 -10.5q-16 0 -26 10.5t-10 26.5v623q0 18 11.5 29t27.5 11q9 0 18.5 -3.5t14.5 -10.5l422 -558l-13 -16v551q0 16 10.5 26.5
t26.5 10.5zM434 -106q0 -21 -12 -39.5t-31 -30.5t-43 -12q-20 0 -29.5 7.5t-9.5 16.5q0 11 5.5 15.5t11.5 4.5q5 0 12 -2t18 -1q9 1 15 8.5t6 21.5q0 13 -10 13q-7 0 -10 -4.5t-14 -4.5q-14 0 -22 9.5t-8 22.5q0 19 16 30t42 11q27 0 45 -17t18 -49z" />
    <glyph glyph-name="uni0146" unicode="&#x146;" horiz-adv-x="584" 
d="M331 530q68 0 107 -28t55.5 -75t16.5 -105v-281q0 -17 -11.5 -29t-28.5 -12t-28.5 12t-11.5 29v279q0 38 -11.5 68.5t-38 49t-72.5 18.5q-42 0 -77 -18.5t-56 -49t-21 -68.5v-279q0 -17 -11.5 -29t-28.5 -12t-28.5 12t-11.5 29v436q0 17 11.5 28.5t28.5 11.5
q18 0 29 -11.5t11 -28.5v-71l-20 -22q5 26 23 52.5t45 47.5t60 33.5t69 12.5zM355 -122q0 -29 -16.5 -57.5t-41.5 -47t-51 -18.5q-9 0 -18 6.5t-9 22.5q0 17 11 20t24 9q15 8 23.5 19.5t8.5 26.5q0 12 -8.5 19.5t-20.5 7.5q-7 0 -14.5 -2t-12.5 -6q-7 5 -12 12t-5 18
q1 22 22 37.5t48 15.5q32 0 52 -24t20 -59z" />
    <glyph glyph-name="Ncaron" unicode="&#x147;" horiz-adv-x="730" 
d="M606 700q17 0 27 -10.5t10 -26.5v-621q0 -19 -12 -30.5t-29 -11.5q-9 0 -18 3.5t-14 9.5l-428 566l20 12v-554q0 -16 -10.5 -26.5t-27.5 -10.5q-16 0 -26 10.5t-10 26.5v623q0 18 11.5 29t27.5 11q9 0 18.5 -3.5t14.5 -10.5l422 -558l-13 -16v551q0 16 10.5 26.5
t26.5 10.5zM354 809l87 65q11 8 19.5 11.5t15.5 3.5q9 0 15 -6t6 -13q0 -5 -2 -9.5t-8 -11.5l-72 -79q-9 -10 -19 -15t-24 -5h-13q-14 0 -23.5 5t-18.5 15l-72 79q-6 7 -8.5 11.5t-2.5 9.5q0 7 6.5 12.5t15.5 5.5q13 0 35 -15l87 -62z" />
    <glyph glyph-name="ncaron" unicode="&#x148;" horiz-adv-x="584" 
d="M331 530q68 0 107 -28t55.5 -75t16.5 -105v-281q0 -17 -11.5 -29t-28.5 -12t-28.5 12t-11.5 29v279q0 38 -11.5 68.5t-38 49t-72.5 18.5q-42 0 -77 -18.5t-56 -49t-21 -68.5v-279q0 -17 -11.5 -29t-28.5 -12t-28.5 12t-11.5 29v436q0 17 11.5 28.5t28.5 11.5
q18 0 29 -11.5t11 -28.5v-71l-20 -22q5 26 23 52.5t45 47.5t60 33.5t69 12.5zM292 579q-27 0 -42 21l-63 70q-9 11 -9 22q0 9 7 15t20 6q12 0 32 -17l78 -63l-19 -1l76 65q9 8 17 12t20 4q9 0 15.5 -5.5t6.5 -13.5q0 -5 -2.5 -10.5t-8.5 -12.5l-62 -71q-16 -21 -43 -21h-23z
" />
    <glyph glyph-name="napostrophe" unicode="&#x149;" horiz-adv-x="613" 
d="M-12 667q4 33 37 33h32q18 0 24.5 -10.5t0.5 -27.5l-65 -213q-8 -25 -33 -25q-21 0 -18 31zM360 530q68 0 107 -28t55.5 -75t16.5 -105v-281q0 -17 -11.5 -29t-28.5 -12t-28.5 12t-11.5 29v279q0 38 -11.5 68.5t-38 49t-72.5 18.5q-42 0 -77 -18.5t-56 -49t-21 -68.5
v-279q0 -17 -11.5 -29t-28.5 -12t-28.5 12t-11.5 29v436q0 17 11.5 28.5t28.5 11.5q18 0 29 -11.5t11 -28.5v-71l-20 -22q5 26 23 52.5t45 47.5t60 33.5t69 12.5z" />
    <glyph glyph-name="Eng" unicode="&#x14a;" horiz-adv-x="750" 
d="M487 -200q-19 0 -31 10t-12 26q0 17 11 28t28 11q40 1 61.5 12t30 32t8.5 50v77l6 -30l-430 545l9 1v-521q0 -17 -12 -29t-29 -12t-28 12t-11 29v619q0 18 12 29t29 11q10 0 18.5 -4.5t14.5 -12.5l433 -550l-12 -8v533q0 17 11.5 28.5t28.5 11.5q18 0 29 -11.5t11 -28.5
v-612v-75q0 -55 -20.5 -93.5t-59.5 -58t-96 -19.5z" />
    <glyph glyph-name="eng" unicode="&#x14b;" horiz-adv-x="584" 
d="M333 -200q-19 0 -31 10t-12 26q0 17 11 28t28 11q40 1 61.5 12t30.5 32t9 50v351q0 38 -11.5 68.5t-38 49t-72.5 18.5q-42 0 -77 -18.5t-56 -49t-21 -68.5v-279q0 -17 -11.5 -29t-28.5 -12t-28.5 12t-11.5 29v436q0 17 11.5 28.5t28.5 11.5q18 0 29 -11.5t11 -28.5v-71
l-20 -22q5 26 23 52.5t45 47.5t60 33.5t69 12.5q68 0 107 -28t55.5 -75t16.5 -105v-351q1 -55 -20 -93.5t-60.5 -58t-96.5 -19.5z" />
    <glyph glyph-name="Omacron" unicode="&#x14c;" horiz-adv-x="764" 
d="M719 350q0 -77 -25 -142.5t-70 -114.5t-107 -76t-135 -27q-74 0 -135.5 27t-106.5 76t-70 114.5t-25 142.5q0 78 25 143.5t70 114t106.5 75.5t135.5 27q73 0 135 -27t107 -75.5t70 -114t25 -143.5zM633 350q0 82 -32.5 145t-88.5 99t-130 36t-130.5 -36t-88.5 -99
t-32 -145q0 -81 32 -144.5t88.5 -99.5t130.5 -36t130 36t88.5 99.5t32.5 144.5zM259 776q-36 0 -36 31q0 32 36 32h251q36 0 36 -32q0 -31 -36 -31h-251z" />
    <glyph glyph-name="omacron" unicode="&#x14d;" horiz-adv-x="611" 
d="M565 260q0 -78 -34.5 -139t-93 -96t-131.5 -35t-132 35t-93.5 96t-34.5 139t34.5 139t93.5 96t132 35t131.5 -35t93 -96t34.5 -139zM485 260q0 58 -23.5 102t-64 69t-91.5 25t-91.5 -25t-64.5 -69t-24 -102q0 -57 24 -101t64.5 -69.5t91.5 -25.5t91.5 25.5t64 69.5
t23.5 101zM184 608q-35 0 -35 33q0 32 35 32h241q35 0 35 -32q0 -33 -35 -33h-241z" />
    <glyph glyph-name="Obreve" unicode="&#x14e;" horiz-adv-x="764" 
d="M719 350q0 -77 -25 -142.5t-70 -114.5t-107 -76t-135 -27q-74 0 -135.5 27t-106.5 76t-70 114.5t-25 142.5q0 78 25 143.5t70 114t106.5 75.5t135.5 27q73 0 135 -27t107 -75.5t70 -114t25 -143.5zM633 350q0 82 -32.5 145t-88.5 99t-130 36t-130.5 -36t-88.5 -99
t-32 -145q0 -81 32 -144.5t88.5 -99.5t130.5 -36t130 36t88.5 99.5t32.5 144.5zM382 770q-53 0 -90.5 25.5t-53.5 72.5q-6 17 1 27.5t21 10.5q16 0 23.5 -6.5t16.5 -19.5q13 -24 33 -36t49 -12q58 0 82 48q8 12 16.5 19t23.5 7t22 -10t1 -27q-16 -48 -53.5 -73.5
t-91.5 -25.5z" />
    <glyph glyph-name="obreve" unicode="&#x14f;" horiz-adv-x="611" 
d="M565 260q0 -78 -34.5 -139t-93 -96t-131.5 -35t-132 35t-93.5 96t-34.5 139t34.5 139t93.5 96t132 35t131.5 -35t93 -96t34.5 -139zM485 260q0 58 -23.5 102t-64 69t-91.5 25t-91.5 -25t-64.5 -69t-24 -102q0 -57 24 -101t64.5 -69.5t91.5 -25.5t91.5 25.5t64 69.5
t23.5 101zM301 577q-35 0 -64.5 14.5t-49 40t-25.5 57.5q-5 16 2.5 26t21.5 10q15 0 24 -7.5t16 -20.5q8 -28 28 -43t47 -15q28 0 47.5 15.5t27.5 42.5q8 13 16.5 20.5t24.5 7.5q14 0 21.5 -10t2.5 -25q-6 -32 -25.5 -57.5t-49 -40.5t-65.5 -15z" />
    <glyph glyph-name="Ohungarumlaut" unicode="&#x150;" horiz-adv-x="764" 
d="M719 350q0 -77 -25 -142.5t-70 -114.5t-107 -76t-135 -27q-74 0 -135.5 27t-106.5 76t-70 114.5t-25 142.5q0 78 25 143.5t70 114t106.5 75.5t135.5 27q73 0 135 -27t107 -75.5t70 -114t25 -143.5zM633 350q0 82 -32.5 145t-88.5 99t-130 36t-130.5 -36t-88.5 -99
t-32 -145q0 -81 32 -144.5t88.5 -99.5t130.5 -36t130 36t88.5 99.5t32.5 144.5zM285 757q-19 0 -19 18q0 11 8 24l52 79q5 9 14 16t23 7q16 0 28.5 -10t12.5 -27q0 -7 -3.5 -13t-9.5 -12l-62 -62q-9 -9 -19.5 -14.5t-24.5 -5.5zM450 757q-19 0 -19 18q0 10 9 24l52 79
q5 9 14 15t22 6q14 0 27.5 -7.5t13.5 -25.5q0 -8 -3 -14.5t-9 -12.5l-63 -62q-9 -9 -19.5 -14.5t-24.5 -5.5z" />
    <glyph glyph-name="ohungarumlaut" unicode="&#x151;" horiz-adv-x="611" 
d="M565 260q0 -78 -34.5 -139t-93 -96t-131.5 -35t-132 35t-93.5 96t-34.5 139t34.5 139t93.5 96t132 35t131.5 -35t93 -96t34.5 -139zM485 260q0 58 -23.5 102t-64 69t-91.5 25t-91.5 -25t-64.5 -69t-24 -102q0 -57 24 -101t64.5 -69.5t91.5 -25.5t91.5 25.5t64 69.5
t23.5 101zM212 579q-9 0 -15 6t-7 13q0 10 9 25l51 78q6 10 16 16.5t23 6.5q15 0 26 -8.5t11 -26.5q0 -7 -3 -13.5t-9 -12.5l-60 -63q-10 -9 -19 -15t-23 -6zM367 579q-9 0 -15.5 6t-6.5 13q0 11 9 25l52 79q6 9 14.5 15t22.5 6q15 0 27 -8t12 -26q0 -7 -3 -13t-10 -13
l-60 -63q-10 -9 -19 -15t-23 -6z" />
    <glyph glyph-name="OE" unicode="&#x152;" horiz-adv-x="983" 
d="M897 80q17 0 29 -11.5t12 -28.5t-12 -28.5t-29 -11.5h-557q-98 0 -163.5 47.5t-98.5 127t-33 175.5q0 70 18.5 133.5t55.5 112.5t92.5 76.5t128.5 27.5h557q17 0 29 -11.5t12 -28.5t-12 -28.5t-29 -11.5h-314l8 13v-251l-9 13h270q17 0 29 -11.5t12 -28.5t-12 -28.5
t-29 -11.5h-270l9 13v-256l-6 8h312zM521 80l-11 -13v565l9 -12h-174q-58 0 -99.5 -21.5t-68 -59t-39.5 -86.5t-13 -103q0 -74 23 -135.5t71.5 -98t125.5 -36.5h176z" />
    <glyph glyph-name="oe" unicode="&#x153;" horiz-adv-x="1012" 
d="M565 260q0 -78 -34.5 -139t-93 -96t-131.5 -35t-132 35t-93.5 96t-34.5 139t34.5 139t93.5 96t132 35t131.5 -35t93 -96t34.5 -139zM485 260q0 58 -23.5 102t-64 69t-91.5 25t-91.5 -25t-64.5 -69t-24 -102q0 -57 24 -101t64.5 -69.5t91.5 -25.5t91.5 25.5t64 69.5
t23.5 101zM752 -10q-80 0 -140 34t-93.5 93.5t-33.5 137.5q0 87 34.5 148.5t90 94t117.5 32.5q46 0 89 -17t76 -49.5t53 -78t21 -101.5q0 -16 -12 -27t-28 -11h-395l-18 69h385l-16 -14v22q-4 41 -27.5 70.5t-57 45.5t-70.5 16q-30 0 -59.5 -10.5t-53 -34t-38 -60.5
t-14.5 -89q0 -58 23.5 -102t65.5 -69.5t98 -25.5q35 0 61 9t45 22.5t32 27.5q13 9 25 9q15 0 24.5 -10t9.5 -24q0 -17 -16 -30q-28 -31 -76 -54.5t-102 -23.5z" />
    <glyph glyph-name="Racute" unicode="&#x154;" horiz-adv-x="676" 
d="M134 0q-19 0 -32.5 12t-13.5 29v619q0 17 11.5 28.5t28.5 11.5h276q56 0 101 -25.5t71.5 -70t26.5 -102.5q0 -42 -16 -78.5t-44 -63t-64 -40.5l-22 16q34 -8 61 -28.5t44 -52t18 -73.5q2 -37 5 -59t9 -34.5t17 -19.5q14 -9 18.5 -24t-5.5 -29q-6 -9 -17 -12.5t-22 -2.5
t-19 6q-16 9 -31 26.5t-25 50.5t-10 90q0 32 -10 53t-27 34t-38 18t-43 5h-223l12 18v-261q0 -17 -10 -29t-27 -12zM159 356h245q29 2 54.5 20t42 50.5t16.5 73.5q0 53 -33.5 88t-84.5 35h-236l8 19v-304zM339 743q-13 0 -20 7t-7 17q0 6 3 11t8 10l88 72q8 6 17 10.5
t19 4.5q14 0 26 -10.5t12 -26.5q0 -12 -6.5 -22t-19.5 -16l-98 -50q-5 -3 -11 -5t-11 -2z" />
    <glyph glyph-name="racute" unicode="&#x155;" horiz-adv-x="401" 
d="M114 0q-17 0 -28.5 12t-11.5 29v436q0 17 11.5 28.5t28.5 11.5q18 0 29 -11.5t11 -28.5v-132l-12 21q6 31 21.5 60.5t39.5 53t55 37t68 13.5q22 0 40.5 -10.5t18.5 -29.5q0 -21 -11 -31t-25 -10q-13 0 -25 5.5t-30 5.5q-25 0 -49.5 -13.5t-45 -38.5t-33 -56.5
t-12.5 -67.5v-243q0 -17 -11.5 -29t-28.5 -12zM195 558q-7 0 -14.5 6t-7.5 16q0 7 6 16l60 98q6 10 16 19t24 9q20 0 30 -10.5t10 -27.5q-1 -8 -4 -15t-9 -15l-76 -80q-7 -8 -16.5 -12t-18.5 -4z" />
    <glyph glyph-name="uni0156" unicode="&#x156;" horiz-adv-x="676" 
d="M134 0q-19 0 -32.5 12t-13.5 29v619q0 17 11.5 28.5t28.5 11.5h276q56 0 101 -25.5t71.5 -70t26.5 -102.5q0 -42 -16 -78.5t-44 -63t-64 -40.5l-22 16q34 -8 61 -28.5t44 -52t18 -73.5q2 -37 5 -59t9 -34.5t17 -19.5q14 -9 18.5 -24t-5.5 -29q-6 -9 -17 -12.5t-22 -2.5
t-19 6q-16 9 -31 26.5t-25 50.5t-10 90q0 32 -10 53t-27 34t-38 18t-43 5h-223l12 18v-261q0 -17 -10 -29t-27 -12zM159 356h245q29 2 54.5 20t42 50.5t16.5 73.5q0 53 -33.5 88t-84.5 35h-236l8 19v-304zM404 -106q0 -21 -12 -39.5t-31 -30.5t-43 -12q-20 0 -29.5 7.5
t-9.5 16.5q0 11 5.5 15.5t11.5 4.5q5 0 12 -2t18 -1q9 1 15 8.5t6 21.5q0 13 -10 13q-7 0 -10 -4.5t-14 -4.5q-14 0 -22 9.5t-8 22.5q0 19 16 30t42 11q27 0 45 -17t18 -49z" />
    <glyph glyph-name="uni0157" unicode="&#x157;" horiz-adv-x="401" 
d="M114 0q-17 0 -28.5 12t-11.5 29v436q0 17 11.5 28.5t28.5 11.5q18 0 29 -11.5t11 -28.5v-132l-12 21q6 31 21.5 60.5t39.5 53t55 37t68 13.5q22 0 40.5 -10.5t18.5 -29.5q0 -21 -11 -31t-25 -10q-13 0 -25 5.5t-30 5.5q-25 0 -49.5 -13.5t-45 -38.5t-33 -56.5
t-12.5 -67.5v-243q0 -17 -11.5 -29t-28.5 -12zM176 -122q0 -29 -16.5 -57.5t-41.5 -47t-51 -18.5q-9 0 -18 6.5t-9 22.5q0 17 11 20t24 9q15 8 23.5 19.5t8.5 26.5q0 12 -8.5 19.5t-20.5 7.5q-7 0 -14.5 -2t-12.5 -6q-7 5 -12 12t-5 18q1 22 22 37.5t48 15.5q32 0 52 -24
t20 -59z" />
    <glyph glyph-name="Rcaron" unicode="&#x158;" horiz-adv-x="676" 
d="M134 0q-19 0 -32.5 12t-13.5 29v619q0 17 11.5 28.5t28.5 11.5h276q56 0 101 -25.5t71.5 -70t26.5 -102.5q0 -42 -16 -78.5t-44 -63t-64 -40.5l-22 16q34 -8 61 -28.5t44 -52t18 -73.5q2 -37 5 -59t9 -34.5t17 -19.5q14 -9 18.5 -24t-5.5 -29q-6 -9 -17 -12.5t-22 -2.5
t-19 6q-16 9 -31 26.5t-25 50.5t-10 90q0 32 -10 53t-27 34t-38 18t-43 5h-223l12 18v-261q0 -17 -10 -29t-27 -12zM159 356h245q29 2 54.5 20t42 50.5t16.5 73.5q0 53 -33.5 88t-84.5 35h-236l8 19v-304zM324 809l87 65q11 8 19.5 11.5t15.5 3.5q9 0 15 -6t6 -13
q0 -5 -2 -9.5t-8 -11.5l-72 -79q-9 -10 -19 -15t-24 -5h-13q-14 0 -23.5 5t-18.5 15l-72 79q-6 7 -8.5 11.5t-2.5 9.5q0 7 6.5 12.5t15.5 5.5q13 0 35 -15l87 -62z" />
    <glyph glyph-name="rcaron" unicode="&#x159;" horiz-adv-x="401" 
d="M114 0q-17 0 -28.5 12t-11.5 29v436q0 17 11.5 28.5t28.5 11.5q18 0 29 -11.5t11 -28.5v-132l-12 21q6 31 21.5 60.5t39.5 53t55 37t68 13.5q22 0 40.5 -10.5t18.5 -29.5q0 -21 -11 -31t-25 -10q-13 0 -25 5.5t-30 5.5q-25 0 -49.5 -13.5t-45 -38.5t-33 -56.5
t-12.5 -67.5v-243q0 -17 -11.5 -29t-28.5 -12zM188 579q-27 0 -42 21l-63 70q-9 11 -9 22q0 9 7 15t20 6q12 0 32 -17l78 -63l-19 -1l76 65q9 8 17 12t20 4q9 0 15.5 -5.5t6.5 -13.5q0 -5 -2.5 -10.5t-8.5 -12.5l-62 -71q-16 -21 -43 -21h-23z" />
    <glyph glyph-name="Sacute" unicode="&#x15a;" horiz-adv-x="574" 
d="M292 -10q-74 0 -130 22t-108 70q-7 7 -11.5 15.5t-4.5 18.5q0 16 11.5 28.5t28.5 12.5q14 0 25 -11q39 -38 84.5 -58t102.5 -20q44 0 79.5 14t56.5 39t21 58q-1 40 -23.5 66t-62 43.5t-91.5 29.5q-46 11 -84.5 27t-66.5 39.5t-43.5 57t-15.5 78.5q0 57 30 100t83 66.5
t122 23.5q61 0 115.5 -20t87.5 -55q20 -19 20 -37q0 -15 -12.5 -27.5t-28.5 -12.5q-11 0 -20 8q-17 19 -43 34t-57 24t-62 9q-46 0 -81 -13.5t-54.5 -38t-19.5 -58.5q0 -38 22 -62.5t59 -40t82 -27.5q49 -12 90.5 -27.5t71.5 -38.5t46.5 -58.5t16.5 -87.5q0 -55 -31 -98
t-84.5 -67.5t-120.5 -25.5zM290 743q-13 0 -20 7t-7 17q0 6 3 11t8 10l88 72q8 6 17 10.5t19 4.5q14 0 26 -10.5t12 -26.5q0 -12 -6.5 -22t-19.5 -16l-98 -50q-5 -3 -11 -5t-11 -2z" />
    <glyph glyph-name="sacute" unicode="&#x15b;" horiz-adv-x="474" 
d="M45 82q-9 13 -8 27.5t17 25.5q10 7 23.5 6t24.5 -13q28 -33 64 -52.5t88 -19.5q24 1 48 8t40.5 24.5t16.5 46.5q0 28 -17 44.5t-44 27t-59 18.5q-33 9 -65 20.5t-57.5 29t-41 44t-15.5 64.5q0 45 24.5 78t66 51t90.5 18q28 0 58.5 -6.5t59.5 -22t51 -42.5q9 -10 10 -25
t-13 -27q-11 -8 -24.5 -7t-22.5 10q-21 25 -52.5 38.5t-69.5 13.5q-24 0 -47 -7t-38.5 -23.5t-15.5 -45.5q1 -27 18 -44t46 -27.5t64 -20.5q32 -8 61.5 -18.5t53.5 -27.5t38 -43.5t14 -66.5q0 -46 -26 -79.5t-68.5 -51t-91.5 -17.5q-55 0 -108.5 21t-92.5 71zM231 558
q-7 0 -14.5 6t-7.5 16q0 7 6 16l60 98q6 10 16 19t24 9q20 0 30 -10.5t10 -27.5q-1 -8 -4 -15t-9 -15l-76 -80q-7 -8 -16.5 -12t-18.5 -4z" />
    <glyph glyph-name="Scircumflex" unicode="&#x15c;" horiz-adv-x="574" 
d="M292 -10q-74 0 -130 22t-108 70q-7 7 -11.5 15.5t-4.5 18.5q0 16 11.5 28.5t28.5 12.5q14 0 25 -11q39 -38 84.5 -58t102.5 -20q44 0 79.5 14t56.5 39t21 58q-1 40 -23.5 66t-62 43.5t-91.5 29.5q-46 11 -84.5 27t-66.5 39.5t-43.5 57t-15.5 78.5q0 57 30 100t83 66.5
t122 23.5q61 0 115.5 -20t87.5 -55q20 -19 20 -37q0 -15 -12.5 -27.5t-28.5 -12.5q-11 0 -20 8q-17 19 -43 34t-57 24t-62 9q-46 0 -81 -13.5t-54.5 -38t-19.5 -58.5q0 -38 22 -62.5t59 -40t82 -27.5q49 -12 90.5 -27.5t71.5 -38.5t46.5 -58.5t16.5 -87.5q0 -55 -31 -98
t-84.5 -67.5t-120.5 -25.5zM298 833l-87 -63q-11 -7 -19 -11.5t-16 -4.5q-9 0 -15 6t-6 13q0 5 2 9.5t8 11.5l72 79q10 10 19.5 15t23.5 5h13q14 0 23.5 -5t18.5 -15l72 -79q6 -6 8.5 -10.5t2.5 -10.5t-6 -12t-16 -6q-7 0 -15.5 4.5t-19.5 11.5l-87 60z" />
    <glyph glyph-name="scircumflex" unicode="&#x15d;" horiz-adv-x="474" 
d="M45 82q-9 13 -8 27.5t17 25.5q10 7 23.5 6t24.5 -13q28 -33 64 -52.5t88 -19.5q24 1 48 8t40.5 24.5t16.5 46.5q0 28 -17 44.5t-44 27t-59 18.5q-33 9 -65 20.5t-57.5 29t-41 44t-15.5 64.5q0 45 24.5 78t66 51t90.5 18q28 0 58.5 -6.5t59.5 -22t51 -42.5q9 -10 10 -25
t-13 -27q-11 -8 -24.5 -7t-22.5 10q-21 25 -52.5 38.5t-69.5 13.5q-24 0 -47 -7t-38.5 -23.5t-15.5 -45.5q1 -27 18 -44t46 -27.5t64 -20.5q32 -8 61.5 -18.5t53.5 -27.5t38 -43.5t14 -66.5q0 -46 -26 -79.5t-68.5 -51t-91.5 -17.5q-55 0 -108.5 21t-92.5 71zM252 671
l-84 -70q-9 -8 -15.5 -12.5t-18.5 -4.5q-9 0 -15 5.5t-6 12.5q0 6 2 10.5t7 11.5l65 74q16 20 43 20h23q14 0 22.5 -4t16.5 -16l62 -74q6 -6 7.5 -11t1.5 -10q0 -7 -5.5 -13t-15.5 -6q-11 0 -17.5 5t-16.5 12l-87 73z" />
    <glyph glyph-name="Scedilla" unicode="&#x15e;" horiz-adv-x="574" 
d="M292 -10q-74 0 -130 22t-108 70q-7 7 -11.5 15.5t-4.5 18.5q0 16 11.5 28.5t28.5 12.5q14 0 25 -11q39 -38 84.5 -58t102.5 -20q44 0 79.5 14t56.5 39t21 58q-1 40 -23.5 66t-62 43.5t-91.5 29.5q-46 11 -84.5 27t-66.5 39.5t-43.5 57t-15.5 78.5q0 57 30 100t83 66.5
t122 23.5q61 0 115.5 -20t87.5 -55q20 -19 20 -37q0 -15 -12.5 -27.5t-28.5 -12.5q-11 0 -20 8q-17 19 -43 34t-57 24t-62 9q-46 0 -81 -13.5t-54.5 -38t-19.5 -58.5q0 -38 22 -62.5t59 -40t82 -27.5q49 -12 90.5 -27.5t71.5 -38.5t46.5 -58.5t16.5 -87.5q0 -55 -31 -98
t-84.5 -67.5t-120.5 -25.5zM225 -146q-8 0 -20 4.5t-21 13t-9 19.5q0 12 8 22l84 107h50l-61 -142q-10 -24 -31 -24z" />
    <glyph glyph-name="scedilla" unicode="&#x15f;" horiz-adv-x="474" 
d="M45 82q-9 13 -8 27.5t17 25.5q10 7 23.5 6t24.5 -13q28 -33 64 -52.5t88 -19.5q24 1 48 8t40.5 24.5t16.5 46.5q0 28 -17 44.5t-44 27t-59 18.5q-33 9 -65 20.5t-57.5 29t-41 44t-15.5 64.5q0 45 24.5 78t66 51t90.5 18q28 0 58.5 -6.5t59.5 -22t51 -42.5q9 -10 10 -25
t-13 -27q-11 -8 -24.5 -7t-22.5 10q-21 25 -52.5 38.5t-69.5 13.5q-24 0 -47 -7t-38.5 -23.5t-15.5 -45.5q1 -27 18 -44t46 -27.5t64 -20.5q32 -8 61.5 -18.5t53.5 -27.5t38 -43.5t14 -66.5q0 -46 -26 -79.5t-68.5 -51t-91.5 -17.5q-55 0 -108.5 21t-92.5 71zM216 -146
q-7 0 -19 4.5t-21.5 13t-9.5 19.5q0 12 9 22l84 107h49l-61 -142q-9 -24 -31 -24z" />
    <glyph glyph-name="Scaron" unicode="&#x160;" horiz-adv-x="574" 
d="M292 -10q-74 0 -130 22t-108 70q-7 7 -11.5 15.5t-4.5 18.5q0 16 11.5 28.5t28.5 12.5q14 0 25 -11q39 -38 84.5 -58t102.5 -20q44 0 79.5 14t56.5 39t21 58q-1 40 -23.5 66t-62 43.5t-91.5 29.5q-46 11 -84.5 27t-66.5 39.5t-43.5 57t-15.5 78.5q0 57 30 100t83 66.5
t122 23.5q61 0 115.5 -20t87.5 -55q20 -19 20 -37q0 -15 -12.5 -27.5t-28.5 -12.5q-11 0 -20 8q-17 19 -43 34t-57 24t-62 9q-46 0 -81 -13.5t-54.5 -38t-19.5 -58.5q0 -38 22 -62.5t59 -40t82 -27.5q49 -12 90.5 -27.5t71.5 -38.5t46.5 -58.5t16.5 -87.5q0 -55 -31 -98
t-84.5 -67.5t-120.5 -25.5zM276 809l87 65q11 8 19.5 11.5t15.5 3.5q9 0 15 -6t6 -13q0 -5 -2 -9.5t-8 -11.5l-72 -79q-9 -10 -19 -15t-24 -5h-13q-14 0 -23.5 5t-18.5 15l-72 79q-6 7 -8.5 11.5t-2.5 9.5q0 7 6.5 12.5t15.5 5.5q13 0 35 -15l87 -62z" />
    <glyph glyph-name="scaron" unicode="&#x161;" horiz-adv-x="474" 
d="M45 82q-9 13 -8 27.5t17 25.5q10 7 23.5 6t24.5 -13q28 -33 64 -52.5t88 -19.5q24 1 48 8t40.5 24.5t16.5 46.5q0 28 -17 44.5t-44 27t-59 18.5q-33 9 -65 20.5t-57.5 29t-41 44t-15.5 64.5q0 45 24.5 78t66 51t90.5 18q28 0 58.5 -6.5t59.5 -22t51 -42.5q9 -10 10 -25
t-13 -27q-11 -8 -24.5 -7t-22.5 10q-21 25 -52.5 38.5t-69.5 13.5q-24 0 -47 -7t-38.5 -23.5t-15.5 -45.5q1 -27 18 -44t46 -27.5t64 -20.5q32 -8 61.5 -18.5t53.5 -27.5t38 -43.5t14 -66.5q0 -46 -26 -79.5t-68.5 -51t-91.5 -17.5q-55 0 -108.5 21t-92.5 71zM224 579
q-27 0 -42 21l-63 70q-9 11 -9 22q0 9 7 15t20 6q12 0 32 -17l78 -63l-19 -1l76 65q9 8 17 12t20 4q9 0 15.5 -5.5t6.5 -13.5q0 -5 -2.5 -10.5t-8.5 -12.5l-62 -71q-16 -21 -43 -21h-23z" />
    <glyph glyph-name="uni0162" unicode="&#x162;" horiz-adv-x="611" 
d="M305 0q-18 0 -30 12t-12 29v618h85v-618q0 -17 -12 -29t-31 -12zM73 624q-17 0 -28.5 10.5t-11.5 27.5t11.5 27.5t28.5 10.5h465q17 0 29 -10.5t12 -27.5q0 -18 -12 -28t-29 -10h-465zM244 -146q-8 0 -20 4.5t-21 13t-9 19.5q0 12 8 22l84 107h50l-61 -142
q-10 -24 -31 -24z" />
    <glyph glyph-name="uni0163" unicode="&#x163;" horiz-adv-x="363" 
d="M54 514h235q16 0 26.5 -11t10.5 -26q0 -16 -10.5 -26.5t-26.5 -10.5h-235q-15 0 -26 11t-11 27q0 15 11 25.5t26 10.5zM159 650q17 0 28 -11.5t11 -28.5v-483q0 -24 7 -36t18.5 -16.5t22.5 -4.5q10 0 17.5 3.5t17.5 3.5t18.5 -9.5t8.5 -24.5q0 -18 -21 -30.5t-47 -12.5
q-14 0 -34.5 2t-40.5 13t-33.5 36.5t-13.5 71.5v487q0 17 12 28.5t29 11.5zM185 -146q-7 0 -19 4.5t-21.5 13t-9.5 19.5q0 12 9 22l84 107h49l-61 -142q-9 -24 -31 -24z" />
    <glyph glyph-name="Tcaron" unicode="&#x164;" horiz-adv-x="611" 
d="M305 0q-18 0 -30 12t-12 29v618h85v-618q0 -17 -12 -29t-31 -12zM73 624q-17 0 -28.5 10.5t-11.5 27.5t11.5 27.5t28.5 10.5h465q17 0 29 -10.5t12 -27.5q0 -18 -12 -28t-29 -10h-465zM294 809l87 65q11 8 19.5 11.5t15.5 3.5q9 0 15 -6t6 -13q0 -5 -2 -9.5t-8 -11.5
l-72 -79q-9 -10 -19 -15t-24 -5h-13q-14 0 -23.5 5t-18.5 15l-72 79q-6 7 -8.5 11.5t-2.5 9.5q0 7 6.5 12.5t15.5 5.5q13 0 35 -15l87 -62z" />
    <glyph glyph-name="tcaron" unicode="&#x165;" horiz-adv-x="363" 
d="M54 514h235q16 0 26.5 -11t10.5 -26q0 -16 -10.5 -26.5t-26.5 -10.5h-235q-15 0 -26 11t-11 27q0 15 11 25.5t26 10.5zM159 650q17 0 28 -11.5t11 -28.5v-483q0 -24 7 -36t18.5 -16.5t22.5 -4.5q10 0 17.5 3.5t17.5 3.5t18.5 -9.5t8.5 -24.5q0 -18 -21 -30.5t-47 -12.5
q-14 0 -34.5 2t-40.5 13t-33.5 36.5t-13.5 71.5v487q0 17 12 28.5t29 11.5zM384 706q0 -29 -16.5 -57.5t-41.5 -47t-51 -18.5q-9 0 -18 6.5t-9 22.5q0 17 11 20t24 9q15 8 23.5 19.5t8.5 26.5q0 12 -8.5 19.5t-20.5 7.5q-7 0 -14.5 -2t-12.5 -6q-7 5 -12 12t-5 18
q1 22 22 37.5t48 15.5q32 0 52 -24t20 -59z" />
    <glyph glyph-name="Tbar" unicode="&#x166;" horiz-adv-x="611" 
d="M228 301q-18 0 -29.5 10t-11.5 27q0 16 11.5 26.5t29.5 10.5h167q18 0 29 -10.5t11 -26.5q0 -17 -11 -27t-29 -10h-167zM305 0q-18 0 -30 12t-12 29v618h85v-618q0 -17 -12 -29t-31 -12zM73 624q-17 0 -28.5 10.5t-11.5 27.5t11.5 27.5t28.5 10.5h465q17 0 29 -10.5
t12 -27.5q0 -18 -12 -28t-29 -10h-465z" />
    <glyph glyph-name="tbar" unicode="&#x167;" horiz-adv-x="363" 
d="M54 514h235q16 0 26.5 -11t10.5 -26q0 -16 -10.5 -26.5t-26.5 -10.5h-235q-15 0 -26 11t-11 27q0 15 11 25.5t26 10.5zM159 650q17 0 28 -11.5t11 -28.5v-483q0 -24 7 -36t18.5 -16.5t22.5 -4.5q10 0 17.5 3.5t17.5 3.5t18.5 -9.5t8.5 -24.5q0 -18 -21 -30.5t-47 -12.5
q-14 0 -34.5 2t-40.5 13t-33.5 36.5t-13.5 71.5v487q0 17 12 28.5t29 11.5zM100 219q-18 0 -29.5 10t-11.5 27q0 16 11.5 26.5t29.5 10.5h167q18 0 29 -10.5t11 -26.5q0 -17 -11 -27t-29 -10h-167z" />
    <glyph glyph-name="Utilde" unicode="&#x168;" horiz-adv-x="710" 
d="M584 701q17 0 28 -12t11 -29v-397q0 -77 -35.5 -138t-95.5 -96.5t-136 -35.5q-77 0 -137.5 35.5t-95.5 96.5t-35 138v397q0 17 11.5 29t30.5 12q16 0 28.5 -12t12.5 -29v-397q0 -55 25 -98t67.5 -67.5t92.5 -24.5q51 0 94 24.5t69.5 67.5t26.5 98v397q0 17 10 29t28 12z
M225 759q-16 0 -25.5 14.5t-7.5 38.5q4 33 30 54t65 21q27 0 53.5 -15t50.5 -30t41 -15q13 0 21 9t8 24q-3 16 5 25t21 9q18 0 27 -14.5t8 -37.5q-3 -20 -13.5 -38t-29 -28.5t-43.5 -10.5q-28 0 -56.5 14.5t-53 29t-42.5 14.5q-12 0 -21 -8t-11 -24q2 -15 -6.5 -23.5
t-20.5 -8.5z" />
    <glyph glyph-name="utilde" unicode="&#x169;" horiz-adv-x="575" 
d="M461 517q18 0 29 -11.5t11 -28.5v-273q0 -101 -56.5 -156.5t-157.5 -55.5q-100 0 -156.5 55.5t-56.5 156.5v273q0 17 11.5 28.5t28.5 11.5q18 0 29 -11.5t11 -28.5v-273q0 -68 35 -103t98 -35q65 0 99.5 35t34.5 103v273q0 17 11.5 28.5t28.5 11.5zM158 584
q-18 0 -27 13.5t-7 38.5q5 32 31.5 53t69.5 21q21 0 40.5 -9t37 -20.5t33.5 -21t29 -9.5t20.5 8.5t7.5 23.5q-3 16 5.5 25t21.5 9q19 0 27.5 -13.5t6.5 -36.5q-2 -21 -13.5 -38.5t-31.5 -28.5t-50 -11q-18 0 -37 9t-38.5 20.5t-36.5 20.5t-30 9t-21.5 -7.5t-10.5 -23.5
q2 -15 -6.5 -23.5t-20.5 -8.5z" />
    <glyph glyph-name="Umacron" unicode="&#x16a;" horiz-adv-x="710" 
d="M584 701q17 0 28 -12t11 -29v-397q0 -77 -35.5 -138t-95.5 -96.5t-136 -35.5q-77 0 -137.5 35.5t-95.5 96.5t-35 138v397q0 17 11.5 29t30.5 12q16 0 28.5 -12t12.5 -29v-397q0 -55 25 -98t67.5 -67.5t92.5 -24.5q51 0 94 24.5t69.5 67.5t26.5 98v397q0 17 10 29t28 12z
M232 776q-36 0 -36 31q0 32 36 32h251q36 0 36 -32q0 -31 -36 -31h-251z" />
    <glyph glyph-name="umacron" unicode="&#x16b;" horiz-adv-x="575" 
d="M461 517q18 0 29 -11.5t11 -28.5v-273q0 -101 -56.5 -156.5t-157.5 -55.5q-100 0 -156.5 55.5t-56.5 156.5v273q0 17 11.5 28.5t28.5 11.5q18 0 29 -11.5t11 -28.5v-273q0 -68 35 -103t98 -35q65 0 99.5 35t34.5 103v273q0 17 11.5 28.5t28.5 11.5zM166 603q-35 0 -35 33
q0 32 35 32h241q35 0 35 -32q0 -33 -35 -33h-241z" />
    <glyph glyph-name="Ubreve" unicode="&#x16c;" horiz-adv-x="710" 
d="M584 701q17 0 28 -12t11 -29v-397q0 -77 -35.5 -138t-95.5 -96.5t-136 -35.5q-77 0 -137.5 35.5t-95.5 96.5t-35 138v397q0 17 11.5 29t30.5 12q16 0 28.5 -12t12.5 -29v-397q0 -55 25 -98t67.5 -67.5t92.5 -24.5q51 0 94 24.5t69.5 67.5t26.5 98v397q0 17 10 29t28 12z
M356 770q-53 0 -90.5 25.5t-53.5 72.5q-6 17 1 27.5t21 10.5q16 0 23.5 -6.5t16.5 -19.5q13 -24 33 -36t49 -12q58 0 82 48q8 12 16.5 19t23.5 7t22 -10t1 -27q-16 -48 -53.5 -73.5t-91.5 -25.5z" />
    <glyph glyph-name="ubreve" unicode="&#x16d;" horiz-adv-x="575" 
d="M461 517q18 0 29 -11.5t11 -28.5v-273q0 -101 -56.5 -156.5t-157.5 -55.5q-100 0 -156.5 55.5t-56.5 156.5v273q0 17 11.5 28.5t28.5 11.5q18 0 29 -11.5t11 -28.5v-273q0 -68 35 -103t98 -35q65 0 99.5 35t34.5 103v273q0 17 11.5 28.5t28.5 11.5zM283 572
q-35 0 -64.5 14.5t-49 40t-25.5 57.5q-5 16 2.5 26t21.5 10q15 0 24 -7.5t16 -20.5q8 -28 28 -43t47 -15q28 0 47.5 15.5t27.5 42.5q8 13 16.5 20.5t24.5 7.5q14 0 21.5 -10t2.5 -25q-6 -32 -25.5 -57.5t-49 -40.5t-65.5 -15z" />
    <glyph glyph-name="Uring" unicode="&#x16e;" horiz-adv-x="710" 
d="M584 701q17 0 28 -12t11 -29v-397q0 -77 -35.5 -138t-95.5 -96.5t-136 -35.5q-77 0 -137.5 35.5t-95.5 96.5t-35 138v397q0 17 11.5 29t30.5 12q16 0 28.5 -12t12.5 -29v-397q0 -55 25 -98t67.5 -67.5t92.5 -24.5q51 0 94 24.5t69.5 67.5t26.5 98v397q0 17 10 29t28 12z
M356 745q-28 0 -52 14t-39 37t-15 51t15 51.5t39 37t52 13.5t52.5 -13.5t39 -37t14.5 -51.5t-14.5 -51t-39 -37t-52.5 -14zM356 796q23 0 38 15t15 36q0 23 -15.5 37t-37.5 14t-37.5 -14t-15.5 -37q0 -21 15.5 -36t37.5 -15z" />
    <glyph glyph-name="uring" unicode="&#x16f;" horiz-adv-x="575" 
d="M461 517q18 0 29 -11.5t11 -28.5v-273q0 -101 -56.5 -156.5t-157.5 -55.5q-100 0 -156.5 55.5t-56.5 156.5v273q0 17 11.5 28.5t28.5 11.5q18 0 29 -11.5t11 -28.5v-273q0 -68 35 -103t98 -35q65 0 99.5 35t34.5 103v273q0 17 11.5 28.5t28.5 11.5zM289 560q-28 0 -52 14
t-39 37t-15 51t15 51.5t39 37t52 13.5t52.5 -13.5t39 -37t14.5 -51.5t-14.5 -51t-39 -37t-52.5 -14zM289 611q23 0 38 15t15 36q0 23 -15.5 37t-37.5 14t-37.5 -14t-15.5 -37q0 -21 15.5 -36t37.5 -15z" />
    <glyph glyph-name="Uhungarumlaut" unicode="&#x170;" horiz-adv-x="710" 
d="M584 701q17 0 28 -12t11 -29v-397q0 -77 -35.5 -138t-95.5 -96.5t-136 -35.5q-77 0 -137.5 35.5t-95.5 96.5t-35 138v397q0 17 11.5 29t30.5 12q16 0 28.5 -12t12.5 -29v-397q0 -55 25 -98t67.5 -67.5t92.5 -24.5q51 0 94 24.5t69.5 67.5t26.5 98v397q0 17 10 29t28 12z
M259 757q-19 0 -19 18q0 11 8 24l52 79q5 9 14 16t23 7q16 0 28.5 -10t12.5 -27q0 -7 -3.5 -13t-9.5 -12l-62 -62q-9 -9 -19.5 -14.5t-24.5 -5.5zM424 757q-19 0 -19 18q0 10 9 24l52 79q5 9 14 15t22 6q14 0 27.5 -7.5t13.5 -25.5q0 -8 -3 -14.5t-9 -12.5l-63 -62
q-9 -9 -19.5 -14.5t-24.5 -5.5z" />
    <glyph glyph-name="uhungarumlaut" unicode="&#x171;" horiz-adv-x="575" 
d="M461 517q18 0 29 -11.5t11 -28.5v-273q0 -101 -56.5 -156.5t-157.5 -55.5q-100 0 -156.5 55.5t-56.5 156.5v273q0 17 11.5 28.5t28.5 11.5q18 0 29 -11.5t11 -28.5v-273q0 -68 35 -103t98 -35q65 0 99.5 35t34.5 103v273q0 17 11.5 28.5t28.5 11.5zM194 574q-9 0 -15 6
t-7 13q0 10 9 25l51 78q6 10 16 16.5t23 6.5q15 0 26 -8.5t11 -26.5q0 -7 -3 -13.5t-9 -12.5l-60 -63q-10 -9 -19 -15t-23 -6zM349 574q-9 0 -15.5 6t-6.5 13q0 11 9 25l52 79q6 9 14.5 15t22.5 6q15 0 27 -8t12 -26q0 -7 -3 -13t-10 -13l-60 -63q-10 -9 -19 -15t-23 -6z
" />
    <glyph glyph-name="Uogonek" unicode="&#x172;" horiz-adv-x="710" 
d="M435 -196q-41 0 -72.5 25.5t-31.5 74.5q0 32 12.5 57t33 44t44.5 32t47 19l-73 -61q-10 -1 -19.5 -1.5t-19.5 -0.5q-77 0 -137.5 35.5t-95.5 96.5t-35 138v397q0 17 11.5 29t30.5 12t30 -12t11 -29v-397q0 -55 25 -98t67.5 -67.5t92.5 -24.5q52 0 95 24.5t69 67.5t26 98
v397q0 17 11 29t27 12q17 0 28 -12t11 -29v-397q0 -44 -13.5 -88.5t-41 -81.5t-68.5 -60q-25 -15 -48 -32t-37.5 -37t-14.5 -45q0 -24 13 -37t30 -13q18 0 26 11q7 10 15.5 13.5t15.5 3.5q12 0 20.5 -8.5t8.5 -22.5t-13 -28.5t-34 -24t-47 -9.5z" />
    <glyph glyph-name="uogonek" unicode="&#x173;" horiz-adv-x="575" 
d="M376 -196q-46 0 -80 30t-34 78q0 32 13 57.5t34.5 45.5t47 33.5t49.5 21.5l-74 -74q-10 -2 -21.5 -3t-23.5 -1q-100 0 -156.5 55.5t-56.5 156.5v273q0 17 11.5 28.5t28.5 11.5q18 0 29 -11.5t11 -28.5v-273q0 -68 35 -103t98 -35q65 0 99.5 35t34.5 103v273
q0 17 11.5 28.5t28.5 11.5q18 0 29 -11.5t11 -28.5v-273q0 -55 -17 -99t-60 -73q-21 -12 -42.5 -26.5t-36.5 -33.5t-15 -48q0 -25 16.5 -40t36.5 -15q10 0 16.5 3.5t10.5 8.5q7 9 15.5 12.5t15.5 3.5q12 0 20.5 -8.5t8.5 -22.5t-13 -28.5t-34.5 -24t-46.5 -9.5z" />
    <glyph glyph-name="Wcircumflex" unicode="&#x174;" horiz-adv-x="959" 
d="M890 703q16 0 29.5 -11t13.5 -31q0 -7 -2 -15l-213 -620q-4 -12 -14.5 -18.5t-21.5 -7.5q-12 0 -23 6.5t-17 19.5l-167 404l8 -3l-166 -401q-6 -13 -17 -19.5t-23 -6.5q-11 1 -21.5 7.5t-14.5 18.5l-213 620q-2 8 -2 14q0 20 14.5 31.5t29.5 11.5q12 0 23 -7t15 -19
l187 -552h-14l163 403q5 12 15 19t23 7q12 0 22.5 -7t14.5 -19l158 -397l-12 -5l186 551q4 12 15 19t24 7zM491 833l-87 -63q-11 -7 -19 -11.5t-16 -4.5q-9 0 -15 6t-6 13q0 5 2 9.5t8 11.5l72 79q10 10 19.5 15t23.5 5h13q14 0 23.5 -5t18.5 -15l72 -79q6 -6 8.5 -10.5
t2.5 -10.5t-6 -12t-16 -6q-7 0 -15.5 4.5t-19.5 11.5l-87 60z" />
    <glyph glyph-name="wcircumflex" unicode="&#x175;" horiz-adv-x="757" 
d="M684 526q16 0 27.5 -11t11.5 -29q0 -4 -0.5 -8.5t-2.5 -8.5l-154 -443q-5 -13 -16.5 -20t-24.5 -6q-23 1 -35 26l-126 316l20 -3l-114 -313q-11 -25 -35 -26q-13 -1 -25 6t-16 20l-157 443q-3 9 -3 17q0 16 11 28t30 12q12 0 22 -6t14 -19l135 -394l-21 1l117 300
q10 25 37 25q14 0 22.5 -6.5t12.5 -18.5l122 -300l-25 -2l135 395q9 25 38 25zM394 661l-84 -70q-9 -8 -15.5 -12.5t-18.5 -4.5q-9 0 -15 5.5t-6 12.5q0 6 2 10.5t7 11.5l65 74q16 20 43 20h23q14 0 22.5 -4t16.5 -16l62 -74q6 -6 7.5 -11t1.5 -10q0 -7 -5.5 -13t-15.5 -6
q-11 0 -17.5 5t-16.5 12l-87 73z" />
    <glyph glyph-name="Ycircumflex" unicode="&#x176;" horiz-adv-x="572" 
d="M514 704q17 0 28.5 -12.5t11.5 -28.5q0 -6 -1.5 -12.5t-5.5 -12.5l-232 -323l13 49v-323q0 -17 -11.5 -29t-27.5 -12q-18 0 -29.5 12t-11.5 29v315l7 -26l-225 304q-6 8 -8.5 15.5t-2.5 14.5q0 17 14 28.5t28 11.5q20 0 33 -19l207 -284l-19 3l199 280q13 20 33 20z
M297 833l-87 -63q-11 -7 -19 -11.5t-16 -4.5q-9 0 -15 6t-6 13q0 5 2 9.5t8 11.5l72 79q10 10 19.5 15t23.5 5h13q14 0 23.5 -5t18.5 -15l72 -79q6 -6 8.5 -10.5t2.5 -10.5t-6 -12t-16 -6q-7 0 -15.5 4.5t-19.5 11.5l-87 60z" />
    <glyph glyph-name="ycircumflex" unicode="&#x177;" horiz-adv-x="575" 
d="M461 525q17 0 28.5 -11.5t11.5 -28.5v-436q0 -84 -33 -139.5t-88.5 -82.5t-125.5 -27q-39 0 -75 8t-59 21q-19 9 -26.5 22.5t-2.5 28.5q7 18 20.5 25t28.5 0q16 -7 46.5 -19.5t68.5 -12.5q52 0 89 20t57 58.5t20 95.5v71l12 -25q-16 -31 -43 -54t-62 -36t-77 -13
q-57 0 -96.5 24.5t-60 68t-20.5 100.5v302q0 17 11.5 28.5t28.5 11.5q18 0 29 -11.5t11 -28.5v-284q0 -68 30 -102.5t93 -34.5q40 0 72.5 18t52 49.5t19.5 69.5v284q0 17 11 28.5t29 11.5zM303 671l-84 -70q-9 -8 -15.5 -12.5t-18.5 -4.5q-9 0 -15 5.5t-6 12.5q0 6 2 10.5
t7 11.5l65 74q16 20 43 20h23q14 0 22.5 -4t16.5 -16l62 -74q6 -6 7.5 -11t1.5 -10q0 -7 -5.5 -13t-15.5 -6q-11 0 -17.5 5t-16.5 12l-87 73z" />
    <glyph glyph-name="Ydieresis" unicode="&#x178;" horiz-adv-x="572" 
d="M514 704q17 0 28.5 -12.5t11.5 -28.5q0 -6 -1.5 -12.5t-5.5 -12.5l-232 -323l13 49v-323q0 -17 -11.5 -29t-27.5 -12q-18 0 -29.5 12t-11.5 29v315l7 -26l-225 304q-6 8 -8.5 15.5t-2.5 14.5q0 17 14 28.5t28 11.5q20 0 33 -19l207 -284l-19 3l199 280q13 20 33 20z
M377 770q-24 0 -36 10.5t-12 32.5v13q0 23 12.5 33t35.5 10q24 0 36 -10.5t12 -32.5v-13q0 -22 -12 -32.5t-36 -10.5zM196 770q-24 0 -36 10.5t-12 32.5v13q0 23 13 33t36 10t35 -10.5t12 -32.5v-13q0 -22 -12 -32.5t-36 -10.5z" />
    <glyph glyph-name="Zacute" unicode="&#x179;" horiz-adv-x="646" 
d="M559 700q18 0 31 -11t13 -28q0 -13 -9 -25l-430 -566l-6 7h397q17 0 29 -11t12 -27q0 -17 -12 -28t-29 -11h-465q-18 0 -30 13t-12 27q0 13 9 25l429 564l8 -5h-374q-17 0 -29 11t-12 27q0 17 12 27.5t29 10.5h439zM326 743q-13 0 -20 7t-7 17q0 6 3 11t8 10l88 72
q8 6 17 10.5t19 4.5q14 0 26 -10.5t12 -26.5q0 -12 -6.5 -22t-19.5 -16l-98 -50q-5 -3 -11 -5t-11 -2z" />
    <glyph glyph-name="zacute" unicode="&#x17a;" horiz-adv-x="481" 
d="M402 74q16 0 27 -10.5t11 -26.5q0 -15 -11 -26t-27 -11h-324q-18 0 -28 13t-10 24q1 10 3 17t9 16l286 387l1 -11h-242q-16 0 -27 11t-11 27q0 15 11 25.5t27 10.5h307q16 0 26.5 -11.5t10.5 -28.5q-1 -7 -3 -13.5t-8 -15.5l-283 -382l-7 5h262zM246 558q-7 0 -14.5 6
t-7.5 16q0 7 6 16l60 98q6 10 16 19t24 9q20 0 30 -10.5t10 -27.5q-1 -8 -4 -15t-9 -15l-76 -80q-7 -8 -16.5 -12t-18.5 -4z" />
    <glyph glyph-name="Zdotaccent" unicode="&#x17b;" horiz-adv-x="646" 
d="M559 700q18 0 31 -11t13 -28q0 -13 -9 -25l-430 -566l-6 7h397q17 0 29 -11t12 -27q0 -17 -12 -28t-29 -11h-465q-18 0 -30 13t-12 27q0 13 9 25l429 564l8 -5h-374q-17 0 -29 11t-12 27q0 17 12 27.5t29 10.5h439zM322 760q-24 0 -36 10.5t-12 32.5v14q0 22 13 32.5
t36 10.5q25 0 37 -10.5t12 -32.5v-14q0 -22 -12.5 -32.5t-37.5 -10.5z" />
    <glyph glyph-name="zdotaccent" unicode="&#x17c;" horiz-adv-x="481" 
d="M402 74q16 0 27 -10.5t11 -26.5q0 -15 -11 -26t-27 -11h-324q-18 0 -28 13t-10 24q1 10 3 17t9 16l286 387l1 -11h-242q-16 0 -27 11t-11 27q0 15 11 25.5t27 10.5h307q16 0 26.5 -11.5t10.5 -28.5q-1 -7 -3 -13.5t-8 -15.5l-283 -382l-7 5h262zM252 592q-25 0 -37 10
t-12 31v14q0 21 13 31t37 10t36 -10t12 -31v-14q0 -21 -12.5 -31t-36.5 -10z" />
    <glyph glyph-name="Zcaron" unicode="&#x17d;" horiz-adv-x="646" 
d="M559 700q18 0 31 -11t13 -28q0 -13 -9 -25l-430 -566l-6 7h397q17 0 29 -11t12 -27q0 -17 -12 -28t-29 -11h-465q-18 0 -30 13t-12 27q0 13 9 25l429 564l8 -5h-374q-17 0 -29 11t-12 27q0 17 12 27.5t29 10.5h439zM312 809l87 65q11 8 19.5 11.5t15.5 3.5q9 0 15 -6
t6 -13q0 -5 -2 -9.5t-8 -11.5l-72 -79q-9 -10 -19 -15t-24 -5h-13q-14 0 -23.5 5t-18.5 15l-72 79q-6 7 -8.5 11.5t-2.5 9.5q0 7 6.5 12.5t15.5 5.5q13 0 35 -15l87 -62z" />
    <glyph glyph-name="zcaron" unicode="&#x17e;" horiz-adv-x="481" 
d="M402 74q16 0 27 -10.5t11 -26.5q0 -15 -11 -26t-27 -11h-324q-18 0 -28 13t-10 24q1 10 3 17t9 16l286 387l1 -11h-242q-16 0 -27 11t-11 27q0 15 11 25.5t27 10.5h307q16 0 26.5 -11.5t10.5 -28.5q-1 -7 -3 -13.5t-8 -15.5l-283 -382l-7 5h262zM239 579q-27 0 -42 21
l-63 70q-9 11 -9 22q0 9 7 15t20 6q12 0 32 -17l78 -63l-19 -1l76 65q9 8 17 12t20 4q9 0 15.5 -5.5t6.5 -13.5q0 -5 -2.5 -10.5t-8.5 -12.5l-62 -71q-16 -21 -43 -21h-23z" />
    <glyph glyph-name="uni018F" unicode="&#x18f;" horiz-adv-x="765" 
d="M382 -10q-64 0 -123.5 24t-106 68t-75 104.5t-32.5 132.5v21q0 23 15 34.5t33 11.5h587l6 -80h-556q7 -50 29 -92.5t56 -75t77 -50.5t90 -18q52 0 97.5 20t80.5 57t55 88.5t20 114.5q0 67 -20.5 118.5t-55.5 87.5t-80.5 55t-97.5 19q-67 0 -120 -21.5t-98 -69.5
q-12 -11 -27 -11.5t-27 9.5q-14 11 -15.5 28.5t12.5 30.5q55 59 121 86.5t154 27.5q70 0 131 -28t108 -77.5t73.5 -114.5t26.5 -140t-26.5 -140t-73 -114.5t-107.5 -77.5t-131 -28z" />
    <glyph glyph-name="florin" unicode="&#x192;" horiz-adv-x="544" 
d="M77 -50q-23 0 -41.5 8t-18.5 31q0 17 9 25t23 8q9 0 18 -3t17 -3q35 0 55 26t26 62l75 425q12 72 51.5 112.5t115.5 40.5q15 0 26 -0.5t22 -3.5q18 -3 25.5 -13t6.5 -23q0 -14 -9.5 -23t-25.5 -8q-6 1 -13.5 1h-15.5q-45 0 -69.5 -23t-32.5 -67l-74 -422
q-13 -74 -53.5 -112t-116.5 -38zM147 366q-16 0 -26 10t-10 25q0 16 10 25.5t26 9.5l255 -2q16 0 26 -9.5t10 -25.5q0 -15 -10 -25t-26 -10z" />
    <glyph glyph-name="uni019D" unicode="&#x19d;" horiz-adv-x="730" 
d="M17 -197q-17 0 -27.5 11t-10.5 26q0 21 9 30.5t25 13.5q23 5 39.5 18t26 33.5t9.5 48.5v676q0 18 11.5 29t27.5 11q9 0 18.5 -3.5t14.5 -10.5l422 -558l-15 -16v551q0 16 11 26.5t27 10.5q17 0 27.5 -10.5t10.5 -26.5v-621q0 -19 -12 -30.5t-29 -11.5q-9 0 -18 3.5
t-14 9.5l-428 566l22 12v-625q0 -40 -11.5 -68.5t-29 -46.5t-38 -28t-38.5 -14.5t-30 -5.5z" />
    <glyph glyph-name="Ohorn" unicode="&#x1a0;" horiz-adv-x="764" 
d="M719 350q0 -77 -25 -142.5t-70 -114.5t-107 -76t-135 -27q-74 0 -135.5 27t-106.5 76t-70 114.5t-25 142.5q0 78 25 143.5t70 114t106.5 75.5t135.5 27q73 0 135 -27t107 -75.5t70 -114t25 -143.5zM633 350q0 82 -32.5 145t-88.5 99t-130 36t-130.5 -36t-88.5 -99
t-32 -145q0 -81 32 -144.5t88.5 -99.5t130.5 -36t130 36t88.5 99.5t32.5 144.5zM459 630v69q45 0 68 17t23 55q0 15 8.5 28.5t26.5 13.5q20 0 26.5 -14.5t6.5 -27.5q0 -40 -18 -72t-53 -50.5t-88 -18.5z" />
    <glyph glyph-name="ohorn" unicode="&#x1a1;" horiz-adv-x="611" 
d="M565 260q0 -78 -34.5 -139t-93 -96t-131.5 -35t-132 35t-93.5 96t-34.5 139t34.5 139t93.5 96t132 35t131.5 -35t93 -96t34.5 -139zM485 260q0 58 -23.5 102t-64 69t-91.5 25t-91.5 -25t-64.5 -69t-24 -102q0 -57 24 -101t64.5 -69.5t91.5 -25.5t91.5 25.5t64 69.5
t23.5 101zM395 447v69q45 0 68 17t23 55q0 15 8.5 28.5t26.5 13.5q20 0 26.5 -14.5t6.5 -27.5q0 -40 -18 -72t-53 -50.5t-88 -18.5z" />
    <glyph glyph-name="Uhorn" unicode="&#x1af;" horiz-adv-x="710" 
d="M584 701q17 0 28 -12t11 -29v-397q0 -77 -35.5 -138t-95.5 -96.5t-136 -35.5q-77 0 -137.5 35.5t-95.5 96.5t-35 138v397q0 17 11.5 29t30.5 12q16 0 28.5 -12t12.5 -29v-397q0 -55 25 -98t67.5 -67.5t92.5 -24.5q51 0 94 24.5t69.5 67.5t26.5 98v397q0 17 10 29t28 12z
M578 631v69q45 0 68 17t23 55q0 15 8.5 28.5t26.5 13.5q20 0 26.5 -14.5t6.5 -27.5q0 -40 -18 -72t-53 -50.5t-88 -18.5z" />
    <glyph glyph-name="uhorn" unicode="&#x1b0;" horiz-adv-x="575" 
d="M461 517q18 0 29 -11.5t11 -28.5v-273q0 -101 -56.5 -156.5t-157.5 -55.5q-100 0 -156.5 55.5t-56.5 156.5v273q0 17 11.5 28.5t28.5 11.5q18 0 29 -11.5t11 -28.5v-273q0 -68 35 -103t98 -35q65 0 99.5 35t34.5 103v273q0 17 11.5 28.5t28.5 11.5zM454 448v69
q45 0 68 17t23 55q0 15 8.5 28.5t26.5 13.5q20 0 26.5 -14.5t6.5 -27.5q0 -40 -18 -72t-53 -50.5t-88 -18.5z" />
    <glyph glyph-name="uni01C4" unicode="&#x1c4;" horiz-adv-x="1363" 
d="M378 700q73 0 128.5 -27.5t92.5 -76.5t55.5 -112.5t18.5 -133.5q0 -96 -33 -175.5t-98 -127t-164 -47.5h-250q-17 0 -28.5 12t-11.5 29v619q0 17 11.5 28.5t28.5 11.5h250zM368 78q77 0 125.5 37t71 99t22.5 136q0 54 -12.5 103.5t-39 87.5t-68 60t-99.5 22h-205l8 8
v-563l-6 10h203zM1277 700q18 0 31 -11t13 -28q0 -13 -9 -25l-430 -566l-6 7h397q17 0 29 -11t12 -27q0 -17 -12 -28t-29 -11h-465q-18 0 -30 13t-12 27q0 13 9 25l429 564l8 -5h-374q-17 0 -29 11t-12 27q0 17 12 27.5t29 10.5h439zM1029 809l87 65q11 8 19.5 11.5
t15.5 3.5q9 0 15 -6t6 -13q0 -5 -2 -9.5t-8 -11.5l-72 -79q-9 -10 -19 -15t-24 -5h-13q-14 0 -23.5 5t-18.5 15l-72 79q-6 7 -8.5 11.5t-2.5 9.5q0 7 6.5 12.5t15.5 5.5q13 0 35 -15l87 -62z" />
    <glyph glyph-name="uni01C5" unicode="&#x1c5;" horiz-adv-x="1198" 
d="M378 700q73 0 128.5 -27.5t92.5 -76.5t55.5 -112.5t18.5 -133.5q0 -96 -33 -175.5t-98 -127t-164 -47.5h-250q-17 0 -28.5 12t-11.5 29v619q0 17 11.5 28.5t28.5 11.5h250zM368 78q77 0 125.5 37t71 99t22.5 136q0 54 -12.5 103.5t-39 87.5t-68 60t-99.5 22h-205l8 8
v-563l-6 10h203zM1120 74q16 0 27 -10.5t11 -26.5q0 -15 -11 -26t-27 -11h-324q-18 0 -28 13t-10 24q1 10 3 17t9 16l286 387l1 -11h-242q-16 0 -27 11t-11 27q0 15 11 25.5t27 10.5h307q16 0 26.5 -11.5t10.5 -28.5q-1 -7 -3 -13.5t-8 -15.5l-283 -382l-7 5h262zM957 579
q-27 0 -42 21l-63 70q-9 11 -9 22q0 9 7 15t20 6q12 0 32 -17l78 -63l-19 -1l76 65q9 8 17 12t20 4q9 0 15.5 -5.5t6.5 -13.5q0 -5 -2.5 -10.5t-8.5 -12.5l-62 -71q-16 -21 -43 -21h-23z" />
    <glyph glyph-name="uni01C6" unicode="&#x1c6;" horiz-adv-x="1094" 
d="M500 740q17 0 28.5 -11.5t11.5 -28.5v-659q0 -17 -11.5 -29t-28.5 -12q-18 0 -29 12t-11 29v95l19 7q0 -24 -15 -50.5t-41 -49.5t-61.5 -38t-76.5 -15q-67 0 -121.5 35t-86 96t-31.5 139q0 79 31.5 140t85.5 95.5t120 34.5q42 0 79 -14t64.5 -38t43.5 -53t16 -58l-26 6
v327q0 17 11 28.5t29 11.5zM294 64q50 0 88.5 25.5t60 70t21.5 100.5q0 57 -21.5 101t-60 69.5t-88.5 25.5q-49 0 -87.5 -25.5t-60.5 -69.5t-22 -101q0 -55 22 -99.5t60.5 -70.5t87.5 -26zM1016 74q16 0 27 -10.5t11 -26.5q0 -15 -11 -26t-27 -11h-324q-18 0 -28 13t-10 24
q1 10 3 17t9 16l286 387l1 -11h-242q-16 0 -27 11t-11 27q0 15 11 25.5t27 10.5h307q16 0 26.5 -11.5t10.5 -28.5q-1 -7 -3 -13.5t-8 -15.5l-283 -382l-7 5h262zM853 579q-27 0 -42 21l-63 70q-9 11 -9 22q0 9 7 15t20 6q12 0 32 -17l78 -63l-19 -1l76 65q9 8 17 12t20 4
q9 0 15.5 -5.5t6.5 -13.5q0 -5 -2.5 -10.5t-8.5 -12.5l-62 -71q-16 -21 -43 -21h-23z" />
    <glyph glyph-name="uni01C7" unicode="&#x1c7;" horiz-adv-x="1107" 
d="M474 79q17 0 29 -11.5t12 -28.5t-12 -28t-29 -11h-346q-17 0 -28.5 12t-11.5 29v619q0 17 12 28.5t30 11.5q17 0 29 -11.5t12 -28.5v-599l-20 18h323zM795 -10q-61 0 -110.5 31t-77.5 83q-7 12 -7 23q0 17 13 27.5t26 10.5q11 0 20.5 -6t16.5 -15q20 -34 50 -54t69 -20
q41 0 72.5 18t50 49.5t18.5 71.5v451q0 17 12.5 28.5t30.5 11.5t29.5 -11.5t11.5 -28.5v-451q0 -61 -29.5 -111t-80 -79t-115.5 -29z" />
    <glyph glyph-name="uni01C8" unicode="&#x1c8;" horiz-adv-x="814" 
d="M474 79q17 0 29 -11.5t12 -28.5t-12 -28t-29 -11h-346q-17 0 -28.5 12t-11.5 29v619q0 17 12 28.5t30 11.5q17 0 29 -11.5t12 -28.5v-599l-20 18h323zM710 -34q0 -51 -22.5 -87t-56.5 -56t-71 -20q-17 0 -27.5 11t-10.5 26v7q0 15 10 24t25 13q23 6 39 18.5t25 33t9 48.5
v493q0 17 11.5 29t28.5 12q18 0 29 -12t11 -29v-511zM670 592q-25 0 -37 10t-12 31v14q0 21 13 31t37 10t36 -10t12 -31v-14q0 -21 -12.5 -31t-36.5 -10z" />
    <glyph glyph-name="uni01C9" unicode="&#x1c9;" horiz-adv-x="501" 
d="M162 41q0 -17 -12 -29t-29 -12t-28 12t-11 29v659q0 17 11.5 28.5t28.5 11.5q18 0 29 -11.5t11 -28.5v-659zM397 -34q0 -51 -22.5 -87t-56.5 -56t-71 -20q-17 0 -27.5 11t-10.5 26v7q0 15 10 24t25 13q23 6 39 18.5t25 33t9 48.5v493q0 17 11.5 29t28.5 12q18 0 29 -12
t11 -29v-511zM357 592q-25 0 -37 10t-12 31v14q0 21 13 31t37 10t36 -10t12 -31v-14q0 -21 -12.5 -31t-36.5 -10z" />
    <glyph glyph-name="uni01CA" unicode="&#x1ca;" horiz-adv-x="1295" 
d="M606 700q17 0 27 -10.5t10 -26.5v-621q0 -19 -12 -30.5t-29 -11.5q-9 0 -18 3.5t-14 9.5l-428 566l20 12v-554q0 -16 -10.5 -26.5t-27.5 -10.5q-16 0 -26 10.5t-10 26.5v623q0 18 11.5 29t27.5 11q9 0 18.5 -3.5t14.5 -10.5l422 -558l-13 -16v551q0 16 10.5 26.5
t26.5 10.5zM983 -10q-61 0 -110.5 31t-77.5 83q-7 12 -7 23q0 17 13 27.5t26 10.5q11 0 20.5 -6t16.5 -15q20 -34 50 -54t69 -20q41 0 72.5 18t50 49.5t18.5 71.5v451q0 17 12.5 28.5t30.5 11.5t29.5 -11.5t11.5 -28.5v-451q0 -61 -29.5 -111t-80 -79t-115.5 -29z" />
    <glyph glyph-name="uni01CB" unicode="&#x1cb;" horiz-adv-x="1002" 
d="M606 700q17 0 27 -10.5t10 -26.5v-621q0 -19 -12 -30.5t-29 -11.5q-9 0 -18 3.5t-14 9.5l-428 566l20 12v-554q0 -16 -10.5 -26.5t-27.5 -10.5q-16 0 -26 10.5t-10 26.5v623q0 18 11.5 29t27.5 11q9 0 18.5 -3.5t14.5 -10.5l422 -558l-13 -16v551q0 16 10.5 26.5
t26.5 10.5zM898 -34q0 -51 -22.5 -87t-56.5 -56t-71 -20q-17 0 -27.5 11t-10.5 26v7q0 15 10 24t25 13q23 6 39 18.5t25 33t9 48.5v493q0 17 11.5 29t28.5 12q18 0 29 -12t11 -29v-511zM858 592q-25 0 -37 10t-12 31v14q0 21 13 31t37 10t36 -10t12 -31v-14q0 -21 -12.5 -31
t-36.5 -10z" />
    <glyph glyph-name="uni01CC" unicode="&#x1cc;" horiz-adv-x="856" 
d="M331 530q68 0 107 -28t55.5 -75t16.5 -105v-281q0 -17 -11.5 -29t-28.5 -12t-28.5 12t-11.5 29v279q0 38 -11.5 68.5t-38 49t-72.5 18.5q-42 0 -77 -18.5t-56 -49t-21 -68.5v-279q0 -17 -11.5 -29t-28.5 -12t-28.5 12t-11.5 29v436q0 17 11.5 28.5t28.5 11.5
q18 0 29 -11.5t11 -28.5v-71l-20 -22q5 26 23 52.5t45 47.5t60 33.5t69 12.5zM752 -34q0 -51 -22.5 -87t-56.5 -56t-71 -20q-17 0 -27.5 11t-10.5 26v7q0 15 10 24t25 13q23 6 39 18.5t25 33t9 48.5v493q0 17 11.5 29t28.5 12q18 0 29 -12t11 -29v-511zM712 592
q-25 0 -37 10t-12 31v14q0 21 13 31t37 10t36 -10t12 -31v-14q0 -21 -12.5 -31t-36.5 -10z" />
    <glyph glyph-name="uni01CD" unicode="&#x1cd;" horiz-adv-x="644" 
d="M330 596l-235 -572q-4 -12 -14 -19t-21 -7q-19 0 -28 10t-9 24q-1 7 2 15l259 630q5 14 15.5 20.5t23.5 5.5q13 0 23.5 -7t14.5 -19l258 -624q3 -8 3 -16q0 -18 -12 -28.5t-27 -10.5q-12 0 -22 7t-15 20l-238 572zM145 187l34 78h297l15 -78h-346zM312 809l87 65
q11 8 19.5 11.5t15.5 3.5q9 0 15 -6t6 -13q0 -5 -2 -9.5t-8 -11.5l-72 -79q-9 -10 -19 -15t-24 -5h-13q-14 0 -23.5 5t-18.5 15l-72 79q-6 7 -8.5 11.5t-2.5 9.5q0 7 6.5 12.5t15.5 5.5q13 0 35 -15l87 -62z" />
    <glyph glyph-name="uni01CE" unicode="&#x1ce;" horiz-adv-x="614" 
d="M500 522q17 0 28.5 -11.5t11.5 -28.5v-441q0 -17 -11.5 -29t-28.5 -12q-18 0 -29 12t-11 29v95l19 2q0 -22 -15 -48t-41 -48.5t-61.5 -37t-76.5 -14.5q-68 0 -122 35.5t-85.5 96.5t-31.5 139q0 79 31.5 139.5t85.5 95t120 34.5q43 0 80 -14t64.5 -38t43 -53t15.5 -58
l-26 6v109q0 17 11 28.5t29 11.5zM294 64q50 0 88.5 26t60 70.5t21.5 100.5q0 55 -21.5 99.5t-60 70t-88.5 25.5q-49 0 -87.5 -25t-60.5 -69t-22 -101q0 -56 21.5 -100.5t60 -70.5t88.5 -26zM287 579q-27 0 -42 21l-63 70q-9 11 -9 22q0 9 7 15t20 6q12 0 32 -17l78 -63
l-19 -1l76 65q9 8 17 12t20 4q9 0 15.5 -5.5t6.5 -13.5q0 -5 -2.5 -10.5t-8.5 -12.5l-62 -71q-16 -21 -43 -21h-23z" />
    <glyph glyph-name="uni01CF" unicode="&#x1cf;" horiz-adv-x="259" 
d="M171 41q0 -17 -12.5 -29t-29.5 -12q-19 0 -30 12t-11 29v618q0 18 12 29.5t30 11.5q17 0 29 -11.5t12 -29.5v-618zM119 809l87 65q11 8 19.5 11.5t15.5 3.5q9 0 15 -6t6 -13q0 -5 -2 -9.5t-8 -11.5l-72 -79q-9 -10 -19 -15t-24 -5h-13q-14 0 -23.5 5t-18.5 15l-72 79
q-6 7 -8.5 11.5t-2.5 9.5q0 7 6.5 12.5t15.5 5.5q13 0 35 -15l87 -62z" />
    <glyph glyph-name="uni01D0" unicode="&#x1d0;" horiz-adv-x="221" 
d="M151 41q0 -17 -11.5 -29t-28.5 -12q-18 0 -29 12t-11 29v444q0 17 11.5 28.5t28.5 11.5t28.5 -11.5t11.5 -28.5v-444zM98 579q-27 0 -42 21l-63 70q-9 11 -9 22q0 9 7 15t20 6q12 0 32 -17l78 -63l-19 -1l76 65q9 8 17 12t20 4q9 0 15.5 -5.5t6.5 -13.5q0 -5 -2.5 -10.5
t-8.5 -12.5l-62 -71q-16 -21 -43 -21h-23z" />
    <glyph glyph-name="uni01D1" unicode="&#x1d1;" horiz-adv-x="764" 
d="M719 350q0 -77 -25 -142.5t-70 -114.5t-107 -76t-135 -27q-74 0 -135.5 27t-106.5 76t-70 114.5t-25 142.5q0 78 25 143.5t70 114t106.5 75.5t135.5 27q73 0 135 -27t107 -75.5t70 -114t25 -143.5zM633 350q0 82 -32.5 145t-88.5 99t-130 36t-130.5 -36t-88.5 -99
t-32 -145q0 -81 32 -144.5t88.5 -99.5t130.5 -36t130 36t88.5 99.5t32.5 144.5zM371 809l87 65q11 8 19.5 11.5t15.5 3.5q9 0 15 -6t6 -13q0 -5 -2 -9.5t-8 -11.5l-72 -79q-9 -10 -19 -15t-24 -5h-13q-14 0 -23.5 5t-18.5 15l-72 79q-6 7 -8.5 11.5t-2.5 9.5q0 7 6.5 12.5
t15.5 5.5q13 0 35 -15l87 -62z" />
    <glyph glyph-name="uni01D2" unicode="&#x1d2;" horiz-adv-x="611" 
d="M565 260q0 -78 -34.5 -139t-93 -96t-131.5 -35t-132 35t-93.5 96t-34.5 139t34.5 139t93.5 96t132 35t131.5 -35t93 -96t34.5 -139zM485 260q0 58 -23.5 102t-64 69t-91.5 25t-91.5 -25t-64.5 -69t-24 -102q0 -57 24 -101t64.5 -69.5t91.5 -25.5t91.5 25.5t64 69.5
t23.5 101zM293 584q-27 0 -42 21l-63 70q-9 11 -9 22q0 9 7 15t20 6q12 0 32 -17l78 -63l-19 -1l76 65q9 8 17 12t20 4q9 0 15.5 -5.5t6.5 -13.5q0 -5 -2.5 -10.5t-8.5 -12.5l-62 -71q-16 -21 -43 -21h-23z" />
    <glyph glyph-name="uni01D3" unicode="&#x1d3;" horiz-adv-x="710" 
d="M584 701q17 0 28 -12t11 -29v-397q0 -77 -35.5 -138t-95.5 -96.5t-136 -35.5q-77 0 -137.5 35.5t-95.5 96.5t-35 138v397q0 17 11.5 29t30.5 12q16 0 28.5 -12t12.5 -29v-397q0 -55 25 -98t67.5 -67.5t92.5 -24.5q51 0 94 24.5t69.5 67.5t26.5 98v397q0 17 10 29t28 12z
M344 809l87 65q11 8 19.5 11.5t15.5 3.5q9 0 15 -6t6 -13q0 -5 -2 -9.5t-8 -11.5l-72 -79q-9 -10 -19 -15t-24 -5h-13q-14 0 -23.5 5t-18.5 15l-72 79q-6 7 -8.5 11.5t-2.5 9.5q0 7 6.5 12.5t15.5 5.5q13 0 35 -15l87 -62z" />
    <glyph glyph-name="uni01D4" unicode="&#x1d4;" horiz-adv-x="575" 
d="M461 517q18 0 29 -11.5t11 -28.5v-273q0 -101 -56.5 -156.5t-157.5 -55.5q-100 0 -156.5 55.5t-56.5 156.5v273q0 17 11.5 28.5t28.5 11.5q18 0 29 -11.5t11 -28.5v-273q0 -68 35 -103t98 -35q65 0 99.5 35t34.5 103v273q0 17 11.5 28.5t28.5 11.5zM275 579q-27 0 -42 21
l-63 70q-9 11 -9 22q0 9 7 15t20 6q12 0 32 -17l78 -63l-19 -1l76 65q9 8 17 12t20 4q9 0 15.5 -5.5t6.5 -13.5q0 -5 -2.5 -10.5t-8.5 -12.5l-62 -71q-16 -21 -43 -21h-23z" />
    <glyph glyph-name="Gcaron" unicode="&#x1e6;" horiz-adv-x="695" 
d="M407 -10q-77 0 -142.5 27.5t-115 76.5t-77 114.5t-27.5 141.5q0 77 27.5 142.5t77 114.5t115 76t142.5 27q51 0 98.5 -11.5t86.5 -35.5q10 -5 14.5 -14t4.5 -19q0 -17 -11.5 -29t-26.5 -12q-6 0 -11.5 2t-11.5 4q-31 16 -67 25.5t-76 9.5q-79 0 -141.5 -37t-98.5 -100
t-36 -143q0 -79 36 -142.5t98.5 -100.5t141.5 -37q40 0 82.5 11t72.5 28l-7 -24v211l16 -14h-153q-17 0 -28.5 11.5t-11.5 28.5t11.5 28.5t28.5 11.5h182q18 0 29 -12t11 -29v-231q0 -12 -5.5 -21t-14.5 -15q-45 -29 -99.5 -46.5t-113.5 -17.5zM371 809l87 65
q11 8 19.5 11.5t15.5 3.5q9 0 15 -6t6 -13q0 -5 -2 -9.5t-8 -11.5l-72 -79q-9 -10 -19 -15t-24 -5h-13q-14 0 -23.5 5t-18.5 15l-72 79q-6 7 -8.5 11.5t-2.5 9.5q0 7 6.5 12.5t15.5 5.5q13 0 35 -15l87 -62z" />
    <glyph glyph-name="gcaron" unicode="&#x1e7;" horiz-adv-x="629" 
d="M291 530q43 0 80 -14.5t64.5 -37.5t43 -48t15.5 -47l-19 12v87q0 17 11 28.5t29 11.5q17 0 28.5 -11.5t11.5 -28.5v-438q0 -82 -34.5 -136t-92.5 -81t-130 -27q-30 0 -66 8t-64 19.5t-36 23.5q-15 10 -18.5 22.5t4.5 23.5q9 14 23.5 14t36.5 -9q9 -3 28.5 -10t44 -12.5
t48.5 -5.5q85 0 130.5 44.5t45.5 117.5v93l11 -5q-6 -28 -24.5 -52t-45 -42.5t-58.5 -29t-65 -10.5q-70 0 -126 35t-88.5 96t-32.5 139q0 79 32.5 140t88 95.5t124.5 34.5zM301 456q-51 0 -91.5 -25.5t-63 -69.5t-22.5 -101q0 -55 22.5 -99.5t63 -70.5t91.5 -26
q52 0 92 25.5t63 69.5t23 101q0 58 -23 102t-63 69t-92 25zM304 579q-27 0 -42 21l-63 70q-9 11 -9 22q0 9 7 15t20 6q12 0 32 -17l78 -63l-19 -1l76 65q9 8 17 12t20 4q9 0 15.5 -5.5t6.5 -13.5q0 -5 -2.5 -10.5t-8.5 -12.5l-62 -71q-16 -21 -43 -21h-23z" />
    <glyph glyph-name="uni01EA" unicode="&#x1ea;" horiz-adv-x="764" 
d="M419 -196q-41 0 -72.5 25.5t-31.5 74.5q0 32 12 56t32 40.5t43.5 28t46.5 17.5l33 -40q-30 -5 -52.5 -18.5t-34.5 -31t-12 -37.5q0 -24 13.5 -37t29.5 -13q8 0 14 2t10 8q8 10 17 14t17 4q12 0 20.5 -8.5t8.5 -22.5t-13 -28.5t-34.5 -24t-46.5 -9.5zM719 350
q0 -77 -25 -142.5t-70 -114.5t-107 -76t-135 -27q-74 0 -135.5 27t-106.5 76t-70 114.5t-25 142.5q0 78 25 143.5t70 114t106.5 75.5t135.5 27q73 0 135 -27t107 -75.5t70 -114t25 -143.5zM633 350q0 82 -32.5 145t-88.5 99t-130 36t-130.5 -36t-88.5 -99t-32 -145
q0 -81 32 -144.5t88.5 -99.5t130.5 -36t130 36t88.5 99.5t32.5 144.5z" />
    <glyph glyph-name="uni01EB" unicode="&#x1eb;" horiz-adv-x="602" 
d="M480 260q0 58 -23.5 102t-64 69t-91.5 25q-50 0 -91 -25t-64.5 -69t-23.5 -102q0 -57 23.5 -101t64.5 -69.5t91 -25.5q51 0 91.5 25.5t64 69.5t23.5 101zM357 -196q-42 0 -74.5 26.5t-32.5 78.5q0 34 12.5 59.5t33 43t44.5 29.5t47 19q-17 -21 -40 -38.5t-46 -31.5
q-73 0 -131.5 35t-93 96t-34.5 139t34.5 139t93 96t131.5 35q74 0 132.5 -35t92.5 -96t34 -139q0 -59 -20 -108.5t-56 -85.5t-84 -54q-34 -15 -57.5 -37.5t-23.5 -50.5q0 -27 14 -41t31 -14q16 0 25 11q8 9 17 13t16 4q12 0 20.5 -8.5t8.5 -22.5t-13 -28.5t-34.5 -24
t-46.5 -9.5z" />
    <glyph glyph-name="uni01F2" unicode="&#x1f2;" horiz-adv-x="1197" 
d="M378 700q73 0 128.5 -27.5t92.5 -76.5t55.5 -112.5t18.5 -133.5q0 -96 -33 -175.5t-98 -127t-164 -47.5h-250q-17 0 -28.5 12t-11.5 29v619q0 17 11.5 28.5t28.5 11.5h250zM368 78q77 0 125.5 37t71 99t22.5 136q0 54 -12.5 103.5t-39 87.5t-68 60t-99.5 22h-205l8 8
v-563l-6 10h203zM1119 74q16 0 27 -10.5t11 -26.5q0 -15 -11 -26t-27 -11h-324q-18 0 -28 13t-10 24q1 10 3 17t9 16l286 387l1 -11h-242q-16 0 -27 11t-11 27q0 15 11 25.5t27 10.5h307q16 0 26.5 -11.5t10.5 -28.5q-1 -7 -3 -13.5t-8 -15.5l-283 -382l-7 5h262z" />
    <glyph glyph-name="Aringacute" unicode="&#x1fa;" horiz-adv-x="646" 
d="M324 653q-28 0 -52.5 14t-39 37t-14.5 51t14.5 51.5t39 37t52.5 13.5t52 -13.5t39 -37t15 -51.5t-15 -51t-39 -37t-52 -14zM324 704q22 0 37.5 15t15.5 36q0 23 -16 37t-37 14q-22 0 -37.5 -14t-15.5 -37q0 -21 15.5 -36t37.5 -15zM330 596l-235 -572q-4 -12 -14 -19
t-21 -7q-19 0 -28 10t-9 24q-1 7 2 15l259 630q5 14 15.5 20.5t23.5 5.5q13 0 23.5 -7t14.5 -19l258 -624q3 -8 3 -16q0 -18 -12 -28.5t-27 -10.5q-12 0 -22 7t-15 20l-238 572zM145 187l34 78h297l15 -78h-346zM327 898q-13 0 -20 7t-7 17q0 6 3 11t8 10l88 72q8 6 17 10.5
t19 4.5q14 0 26 -10.5t12 -26.5q0 -12 -6.5 -22t-19.5 -16l-98 -50q-5 -3 -11 -5t-11 -2z" />
    <glyph glyph-name="aringacute" unicode="&#x1fb;" horiz-adv-x="611" 
d="M500 522q17 0 28.5 -11.5t11.5 -28.5v-441q0 -17 -11.5 -29t-28.5 -12q-18 0 -29 12t-11 29v95l19 2q0 -22 -15 -48t-41 -48.5t-61.5 -37t-76.5 -14.5q-68 0 -122 35.5t-85.5 96.5t-31.5 139q0 79 31.5 139.5t85.5 95t120 34.5q43 0 80 -14t64.5 -38t43 -53t15.5 -58
l-26 6v109q0 17 11 28.5t29 11.5zM294 64q50 0 88.5 26t60 70.5t21.5 100.5q0 55 -21.5 99.5t-60 70t-88.5 25.5q-49 0 -87.5 -25t-60.5 -69t-22 -101q0 -56 21.5 -100.5t60 -70.5t88.5 -26zM309 560q-28 0 -52 14t-39 37t-15 51t15 51.5t39 37t52 13.5t52.5 -13.5t39 -37
t14.5 -51.5t-14.5 -51t-39 -37t-52.5 -14zM309 611q23 0 38 15t15 36q0 23 -15.5 37t-37.5 14t-37.5 -14t-15.5 -37q0 -21 15.5 -36t37.5 -15zM311 797q-13 0 -20 7t-7 17q0 6 3 11t8 10l88 72q8 6 17 10.5t19 4.5q14 0 26 -10.5t12 -26.5q0 -12 -6.5 -22t-19.5 -16l-98 -50
q-5 -3 -11 -5t-11 -2z" />
    <glyph glyph-name="AEacute" unicode="&#x1fc;" horiz-adv-x="908" 
d="M183 237h275l-17 -27v375l17 -14l-384 -557q-12 -17 -30 -17q-13 0 -24.5 10t-12.5 27q-1 14 8 26l435 623q7 10 16.5 13.5t20.5 3.5h335q17 0 29 -11t12 -28t-12 -27.5t-29 -10.5h-307l8 9v-251l-7 15h261q17 0 29 -11.5t12 -28.5t-12 -27.5t-29 -10.5h-263l9 12v-270
l-8 18h307q17 0 29 -12t12 -27q0 -17 -12 -28t-29 -11h-341q-17 0 -28.5 12t-11.5 29v133l21 -14h-328zM618 743q-13 0 -20 7t-7 17q0 6 3 11t8 10l88 72q8 6 17 10.5t19 4.5q14 0 26 -10.5t12 -26.5q0 -12 -6.5 -22t-19.5 -16l-98 -50q-5 -3 -11 -5t-11 -2z" />
    <glyph glyph-name="aeacute" unicode="&#x1fd;" horiz-adv-x="911" 
d="M271 530q35 0 68.5 -7t61 -23t44 -43.5t16.5 -68.5v-128l-76 -4v105q0 41 -18.5 61t-45 27t-51.5 7q-34 0 -63 -11.5t-51 -29.5t-38 -39q-13 -15 -31 -15q-13 0 -23.5 9.5t-10.5 23.5q0 7 2 13.5t7 13.5q21 26 51.5 51.5t70.5 41.5t87 16zM218 -10q-40 0 -79 17t-65 51.5
t-26 86.5q0 55 29.5 92.5t86 57.5t137.5 20h493l-14 -13v21q-3 41 -26.5 70.5t-57.5 45.5t-71 16q-30 0 -59.5 -10.5t-53 -34t-37.5 -60.5t-14 -89q0 -58 23.5 -102t65.5 -69.5t97 -25.5q36 0 62 9t44.5 22.5t31.5 27.5q13 9 26 9q14 0 24 -10t10 -24q0 -17 -16 -30
q-29 -31 -76.5 -54.5t-102.5 -23.5q-80 0 -140 34t-93 93.5t-33 137.5q0 87 34.5 148.5t89.5 94t117 32.5q47 0 89.5 -17t76 -49.5t53.5 -78t21 -101.5q-1 -16 -13 -27t-28 -11h-528q-55 0 -92.5 -12.5t-56.5 -35t-19 -52.5q0 -28 14.5 -46.5t36 -27.5t43.5 -9q44 0 80 17.5
t61 42.5t35 46l38 -56q-16 -24 -46.5 -53t-73 -49.5t-98.5 -20.5zM435 566q-7 0 -14.5 6t-7.5 16q0 7 6 16l60 98q6 10 16 19t24 9q20 0 30 -10.5t10 -27.5q-1 -8 -4 -15t-9 -15l-76 -80q-7 -8 -16.5 -12t-18.5 -4z" />
    <glyph glyph-name="Oslashacute" unicode="&#x1fe;" horiz-adv-x="730" 
d="M97 -25q-13 0 -23.5 9.5t-10.5 23.5q0 12 9 23l565 688q7 9 14.5 12t15.5 3q13 0 23.5 -9t10.5 -24q0 -13 -9 -24l-563 -684q-5 -8 -13 -13t-19 -5zM719 350q0 -77 -25 -142.5t-70 -114.5t-107 -76t-135 -27q-74 0 -135.5 27t-106.5 76t-70 114.5t-25 142.5
q0 78 25 143.5t70 114t106.5 75.5t135.5 27q73 0 135 -27t107 -75.5t70 -114t25 -143.5zM633 350q0 82 -32.5 145t-88.5 99t-130 36t-130.5 -36t-88.5 -99t-32 -145q0 -81 32 -144.5t88.5 -99.5t130.5 -36t130 36t88.5 99.5t32.5 144.5zM369 743q-13 0 -20 7t-7 17q0 6 3 11
t8 10l88 72q8 6 17 10.5t19 4.5q14 0 26 -10.5t12 -26.5q0 -12 -6.5 -22t-19.5 -16l-98 -50q-5 -3 -11 -5t-11 -2z" />
    <glyph glyph-name="oslashacute" unicode="&#x1ff;" horiz-adv-x="611" 
d="M93 -25q-14 0 -24.5 11t-10.5 24q0 14 9 24l427 500q11 13 27 13q14 0 24.5 -10t10.5 -25q0 -13 -9 -23l-427 -501q-11 -13 -27 -13zM565 260q0 -78 -34.5 -139t-93 -96t-131.5 -35t-132 35t-93.5 96t-34.5 139t34.5 139t93.5 96t132 35t131.5 -35t93 -96t34.5 -139z
M485 260q0 58 -23.5 102t-64 69t-91.5 25t-91.5 -25t-64.5 -69t-24 -102q0 -57 24 -101t64.5 -69.5t91.5 -25.5t91.5 25.5t64 69.5t23.5 101zM300 560q-7 0 -14.5 6t-7.5 16q0 7 6 16l60 98q6 10 16 19t24 9q20 0 30 -10.5t10 -27.5q-1 -8 -4 -15t-9 -15l-76 -80
q-7 -8 -16.5 -12t-18.5 -4z" />
    <glyph glyph-name="uni0200" unicode="&#x200;" horiz-adv-x="644" 
d="M330 596l-235 -572q-4 -12 -14 -19t-21 -7q-19 0 -28 10t-9 24q-1 7 2 15l259 630q5 14 15.5 20.5t23.5 5.5q13 0 23.5 -7t14.5 -19l258 -624q3 -8 3 -16q0 -18 -12 -28.5t-27 -10.5q-12 0 -22 7t-15 20l-238 572zM145 187l34 78h297l15 -78h-346zM258 754q-6 0 -11.5 2
t-10.5 5l-99 50q-25 14 -25 38q0 16 11.5 26.5t26.5 10.5q10 0 19 -4.5t16 -10.5l88 -72q6 -5 9 -10t3 -11q0 -10 -7 -17t-20 -7zM438 757q-5 0 -10.5 2t-11.5 5l-98 50q-26 14 -26 38q0 16 12 26.5t26 10.5q11 0 20 -4.5t16 -10.5l88 -72q6 -5 8.5 -10t2.5 -11
q0 -10 -7 -17t-20 -7z" />
    <glyph glyph-name="uni0201" unicode="&#x201;" horiz-adv-x="614" 
d="M500 522q17 0 28.5 -11.5t11.5 -28.5v-441q0 -17 -11.5 -29t-28.5 -12q-18 0 -29 12t-11 29v95l19 2q0 -22 -15 -48t-41 -48.5t-61.5 -37t-76.5 -14.5q-68 0 -122 35.5t-85.5 96.5t-31.5 139q0 79 31.5 139.5t85.5 95t120 34.5q43 0 80 -14t64.5 -38t43 -53t15.5 -58
l-26 6v109q0 17 11 28.5t29 11.5zM294 64q50 0 88.5 26t60 70.5t21.5 100.5q0 55 -21.5 99.5t-60 70t-88.5 25.5q-49 0 -87.5 -25t-60.5 -69t-22 -101q0 -56 21.5 -100.5t60 -70.5t88.5 -26zM397 597q-6 0 -12.5 3.5t-12.5 7.5l-85 66q-11 7 -16.5 15.5t-5.5 19.5
q0 17 12 26.5t25 9.5t22 -6t16 -13l74 -85q9 -10 9 -20t-7 -17t-19 -7zM240 597q-6 0 -12.5 3.5t-12.5 7.5l-85 66q-11 7 -16.5 15.5t-5.5 19.5q0 17 12 26.5t25 9.5t22 -6t16 -13l74 -85q9 -10 9 -20t-7 -17t-19 -7z" />
    <glyph glyph-name="uni0202" unicode="&#x202;" horiz-adv-x="644" 
d="M330 596l-235 -572q-4 -12 -14 -19t-21 -7q-19 0 -28 10t-9 24q-1 7 2 15l259 630q5 14 15.5 20.5t23.5 5.5q13 0 23.5 -7t14.5 -19l258 -624q3 -8 3 -16q0 -18 -12 -28.5t-27 -10.5q-12 0 -22 7t-15 20l-238 572zM145 187l34 78h297l15 -78h-346zM323 886q36 0 65 -12
t49 -34t26 -50q5 -16 -2.5 -26.5t-21.5 -10.5q-16 0 -24.5 7.5t-16.5 20.5q-8 21 -27.5 32.5t-47.5 11.5q-27 0 -47 -11.5t-28 -32.5q-7 -13 -16 -20.5t-24 -7.5q-14 0 -22 10t-3 26q7 28 26.5 50t49 34.5t64.5 12.5z" />
    <glyph glyph-name="uni0203" unicode="&#x203;" horiz-adv-x="614" 
d="M500 522q17 0 28.5 -11.5t11.5 -28.5v-441q0 -17 -11.5 -29t-28.5 -12q-18 0 -29 12t-11 29v95l19 2q0 -22 -15 -48t-41 -48.5t-61.5 -37t-76.5 -14.5q-68 0 -122 35.5t-85.5 96.5t-31.5 139q0 79 31.5 139.5t85.5 95t120 34.5q43 0 80 -14t64.5 -38t43 -53t15.5 -58
l-26 6v109q0 17 11 28.5t29 11.5zM294 64q50 0 88.5 26t60 70.5t21.5 100.5q0 55 -21.5 99.5t-60 70t-88.5 25.5q-49 0 -87.5 -25t-60.5 -69t-22 -101q0 -56 21.5 -100.5t60 -70.5t88.5 -26zM305 730q36 0 65 -14.5t49 -39.5t26 -57q5 -16 -2.5 -26.5t-21.5 -10.5
q-16 0 -24.5 7.5t-16.5 20.5q-7 29 -27 44t-48 15q-27 0 -47 -15.5t-28 -43.5q-7 -13 -16 -20.5t-24 -7.5q-14 0 -22 10t-3 26q7 32 26.5 57.5t49 40t64.5 14.5z" />
    <glyph glyph-name="uni0204" unicode="&#x204;" horiz-adv-x="570" 
d="M128 700h356q17 0 29 -11t12 -28t-12 -27.5t-29 -10.5h-322l9 17v-253l-10 11h278q17 0 29 -11t12 -28t-12 -27.5t-29 -10.5h-275l7 9v-259l-6 7h319q17 0 29 -12t12 -27q0 -17 -12 -28t-29 -11h-356q-17 0 -28.5 12t-11.5 29v619q0 17 11.5 28.5t28.5 11.5zM249 754
q-6 0 -11.5 2t-10.5 5l-99 50q-25 14 -25 38q0 16 11.5 26.5t26.5 10.5q10 0 19 -4.5t16 -10.5l88 -72q6 -5 9 -10t3 -11q0 -10 -7 -17t-20 -7zM429 757q-5 0 -10.5 2t-11.5 5l-98 50q-26 14 -26 38q0 16 12 26.5t26 10.5q11 0 20 -4.5t16 -10.5l88 -72q6 -5 8.5 -10
t2.5 -11q0 -10 -7 -17t-20 -7z" />
    <glyph glyph-name="uni0205" unicode="&#x205;" horiz-adv-x="573" 
d="M313 -10q-80 0 -140 34t-93.5 93.5t-33.5 137.5q0 87 34.5 148.5t90 94t117.5 32.5q46 0 89 -17t76 -49.5t53 -78t21 -101.5q0 -16 -12 -27t-28 -11h-395l-18 69h385l-16 -14v22q-4 41 -27.5 70.5t-57 45.5t-70.5 16q-30 0 -59.5 -10.5t-53 -34t-38 -60.5t-14.5 -89
q0 -58 23.5 -102t65.5 -69.5t98 -25.5q35 0 61 9t45 22.5t32 27.5q13 9 25 9q15 0 24.5 -10t9.5 -24q0 -17 -16 -30q-28 -31 -76 -54.5t-102 -23.5zM387 597q-6 0 -12.5 3.5t-12.5 7.5l-85 66q-11 7 -16.5 15.5t-5.5 19.5q0 17 12 26.5t25 9.5t22 -6t16 -13l74 -85
q9 -10 9 -20t-7 -17t-19 -7zM230 597q-6 0 -12.5 3.5t-12.5 7.5l-85 66q-11 7 -16.5 15.5t-5.5 19.5q0 17 12 26.5t25 9.5t22 -6t16 -13l74 -85q9 -10 9 -20t-7 -17t-19 -7z" />
    <glyph glyph-name="uni0206" unicode="&#x206;" horiz-adv-x="570" 
d="M128 700h356q17 0 29 -11t12 -28t-12 -27.5t-29 -10.5h-322l9 17v-253l-10 11h278q17 0 29 -11t12 -28t-12 -27.5t-29 -10.5h-275l7 9v-259l-6 7h319q17 0 29 -12t12 -27q0 -17 -12 -28t-29 -11h-356q-17 0 -28.5 12t-11.5 29v619q0 17 11.5 28.5t28.5 11.5zM313 886
q36 0 65 -12t49 -34t26 -50q5 -16 -2.5 -26.5t-21.5 -10.5q-16 0 -24.5 7.5t-16.5 20.5q-8 21 -27.5 32.5t-47.5 11.5q-27 0 -47 -11.5t-28 -32.5q-7 -13 -16 -20.5t-24 -7.5q-14 0 -22 10t-3 26q7 28 26.5 50t49 34.5t64.5 12.5z" />
    <glyph glyph-name="uni0207" unicode="&#x207;" horiz-adv-x="573" 
d="M313 -10q-80 0 -140 34t-93.5 93.5t-33.5 137.5q0 87 34.5 148.5t90 94t117.5 32.5q46 0 89 -17t76 -49.5t53 -78t21 -101.5q0 -16 -12 -27t-28 -11h-395l-18 69h385l-16 -14v22q-4 41 -27.5 70.5t-57 45.5t-70.5 16q-30 0 -59.5 -10.5t-53 -34t-38 -60.5t-14.5 -89
q0 -58 23.5 -102t65.5 -69.5t98 -25.5q35 0 61 9t45 22.5t32 27.5q13 9 25 9q15 0 24.5 -10t9.5 -24q0 -17 -16 -30q-28 -31 -76 -54.5t-102 -23.5zM294 730q36 0 65 -14.5t49 -39.5t26 -57q5 -16 -2.5 -26.5t-21.5 -10.5q-16 0 -24.5 7.5t-16.5 20.5q-7 29 -27 44t-48 15
q-27 0 -47 -15.5t-28 -43.5q-7 -13 -16 -20.5t-24 -7.5q-14 0 -22 10t-3 26q7 32 26.5 57.5t49 40t64.5 14.5z" />
    <glyph glyph-name="uni0208" unicode="&#x208;" horiz-adv-x="259" 
d="M171 41q0 -17 -12.5 -29t-29.5 -12q-19 0 -30 12t-11 29v618q0 18 12 29.5t30 11.5q17 0 29 -11.5t12 -29.5v-618zM65 754q-6 0 -11.5 2t-10.5 5l-99 50q-25 14 -25 38q0 16 11.5 26.5t26.5 10.5q10 0 19 -4.5t16 -10.5l88 -72q6 -5 9 -10t3 -11q0 -10 -7 -17t-20 -7z
M245 757q-5 0 -10.5 2t-11.5 5l-98 50q-26 14 -26 38q0 16 12 26.5t26 10.5q11 0 20 -4.5t16 -10.5l88 -72q6 -5 8.5 -10t2.5 -11q0 -10 -7 -17t-20 -7z" />
    <glyph glyph-name="uni0209" unicode="&#x209;" horiz-adv-x="221" 
d="M151 41q0 -17 -11.5 -29t-28.5 -12q-18 0 -29 12t-11 29v444q0 17 11.5 28.5t28.5 11.5t28.5 -11.5t11.5 -28.5v-444zM208 597q-6 0 -12.5 3.5t-12.5 7.5l-85 66q-11 7 -16.5 15.5t-5.5 19.5q0 17 12 26.5t25 9.5t22 -6t16 -13l74 -85q9 -10 9 -20t-7 -17t-19 -7zM51 597
q-6 0 -12.5 3.5t-12.5 7.5l-85 66q-11 7 -16.5 15.5t-5.5 19.5q0 17 12 26.5t25 9.5t22 -6t16 -13l74 -85q9 -10 9 -20t-7 -17t-19 -7z" />
    <glyph glyph-name="uni020A" unicode="&#x20a;" horiz-adv-x="259" 
d="M171 41q0 -17 -12.5 -29t-29.5 -12q-19 0 -30 12t-11 29v618q0 18 12 29.5t30 11.5q17 0 29 -11.5t12 -29.5v-618zM130 886q36 0 65 -12t49 -34t26 -50q5 -16 -2.5 -26.5t-21.5 -10.5q-16 0 -24.5 7.5t-16.5 20.5q-8 21 -27.5 32.5t-47.5 11.5q-27 0 -47 -11.5t-28 -32.5
q-7 -13 -16 -20.5t-24 -7.5q-14 0 -22 10t-3 26q7 28 26.5 50t49 34.5t64.5 12.5z" />
    <glyph glyph-name="uni020B" unicode="&#x20b;" horiz-adv-x="221" 
d="M151 41q0 -17 -11.5 -29t-28.5 -12q-18 0 -29 12t-11 29v444q0 17 11.5 28.5t28.5 11.5t28.5 -11.5t11.5 -28.5v-444zM116 730q36 0 65 -14.5t49 -39.5t26 -57q5 -16 -2.5 -26.5t-21.5 -10.5q-16 0 -24.5 7.5t-16.5 20.5q-7 29 -27 44t-48 15q-27 0 -47 -15.5t-28 -43.5
q-7 -13 -16 -20.5t-24 -7.5q-14 0 -22 10t-3 26q7 32 26.5 57.5t49 40t64.5 14.5z" />
    <glyph glyph-name="uni020C" unicode="&#x20c;" horiz-adv-x="764" 
d="M719 350q0 -77 -25 -142.5t-70 -114.5t-107 -76t-135 -27q-74 0 -135.5 27t-106.5 76t-70 114.5t-25 142.5q0 78 25 143.5t70 114t106.5 75.5t135.5 27q73 0 135 -27t107 -75.5t70 -114t25 -143.5zM633 350q0 82 -32.5 145t-88.5 99t-130 36t-130.5 -36t-88.5 -99
t-32 -145q0 -81 32 -144.5t88.5 -99.5t130.5 -36t130 36t88.5 99.5t32.5 144.5zM317 754q-6 0 -11.5 2t-10.5 5l-99 50q-25 14 -25 38q0 16 11.5 26.5t26.5 10.5q10 0 19 -4.5t16 -10.5l88 -72q6 -5 9 -10t3 -11q0 -10 -7 -17t-20 -7zM497 757q-5 0 -10.5 2t-11.5 5l-98 50
q-26 14 -26 38q0 16 12 26.5t26 10.5q11 0 20 -4.5t16 -10.5l88 -72q6 -5 8.5 -10t2.5 -11q0 -10 -7 -17t-20 -7z" />
    <glyph glyph-name="uni020D" unicode="&#x20d;" horiz-adv-x="611" 
d="M565 260q0 -78 -34.5 -139t-93 -96t-131.5 -35t-132 35t-93.5 96t-34.5 139t34.5 139t93.5 96t132 35t131.5 -35t93 -96t34.5 -139zM485 260q0 58 -23.5 102t-64 69t-91.5 25t-91.5 -25t-64.5 -69t-24 -102q0 -57 24 -101t64.5 -69.5t91.5 -25.5t91.5 25.5t64 69.5
t23.5 101zM403 602q-6 0 -12.5 3.5t-12.5 7.5l-85 66q-11 7 -16.5 15.5t-5.5 19.5q0 17 12 26.5t25 9.5t22 -6t16 -13l74 -85q9 -10 9 -20t-7 -17t-19 -7zM246 602q-6 0 -12.5 3.5t-12.5 7.5l-85 66q-11 7 -16.5 15.5t-5.5 19.5q0 17 12 26.5t25 9.5t22 -6t16 -13l74 -85
q9 -10 9 -20t-7 -17t-19 -7z" />
    <glyph glyph-name="uni020E" unicode="&#x20e;" horiz-adv-x="764" 
d="M719 350q0 -77 -25 -142.5t-70 -114.5t-107 -76t-135 -27q-74 0 -135.5 27t-106.5 76t-70 114.5t-25 142.5q0 78 25 143.5t70 114t106.5 75.5t135.5 27q73 0 135 -27t107 -75.5t70 -114t25 -143.5zM633 350q0 82 -32.5 145t-88.5 99t-130 36t-130.5 -36t-88.5 -99
t-32 -145q0 -81 32 -144.5t88.5 -99.5t130.5 -36t130 36t88.5 99.5t32.5 144.5zM381 886q36 0 65 -12t49 -34t26 -50q5 -16 -2.5 -26.5t-21.5 -10.5q-16 0 -24.5 7.5t-16.5 20.5q-8 21 -27.5 32.5t-47.5 11.5q-27 0 -47 -11.5t-28 -32.5q-7 -13 -16 -20.5t-24 -7.5
q-14 0 -22 10t-3 26q7 28 26.5 50t49 34.5t64.5 12.5z" />
    <glyph glyph-name="uni020F" unicode="&#x20f;" horiz-adv-x="611" 
d="M565 260q0 -78 -34.5 -139t-93 -96t-131.5 -35t-132 35t-93.5 96t-34.5 139t34.5 139t93.5 96t132 35t131.5 -35t93 -96t34.5 -139zM485 260q0 58 -23.5 102t-64 69t-91.5 25t-91.5 -25t-64.5 -69t-24 -102q0 -57 24 -101t64.5 -69.5t91.5 -25.5t91.5 25.5t64 69.5
t23.5 101zM311 735q36 0 65 -14.5t49 -39.5t26 -57q5 -16 -2.5 -26.5t-21.5 -10.5q-16 0 -24.5 7.5t-16.5 20.5q-7 29 -27 44t-48 15q-27 0 -47 -15.5t-28 -43.5q-7 -13 -16 -20.5t-24 -7.5q-14 0 -22 10t-3 26q7 32 26.5 57.5t49 40t64.5 14.5z" />
    <glyph glyph-name="uni0210" unicode="&#x210;" horiz-adv-x="676" 
d="M134 0q-19 0 -32.5 12t-13.5 29v619q0 17 11.5 28.5t28.5 11.5h276q56 0 101 -25.5t71.5 -70t26.5 -102.5q0 -42 -16 -78.5t-44 -63t-64 -40.5l-22 16q34 -8 61 -28.5t44 -52t18 -73.5q2 -37 5 -59t9 -34.5t17 -19.5q14 -9 18.5 -24t-5.5 -29q-6 -9 -17 -12.5t-22 -2.5
t-19 6q-16 9 -31 26.5t-25 50.5t-10 90q0 32 -10 53t-27 34t-38 18t-43 5h-223l12 18v-261q0 -17 -10 -29t-27 -12zM159 356h245q29 2 54.5 20t42 50.5t16.5 73.5q0 53 -33.5 88t-84.5 35h-236l8 19v-304zM270 754q-6 0 -11.5 2t-10.5 5l-99 50q-25 14 -25 38
q0 16 11.5 26.5t26.5 10.5q10 0 19 -4.5t16 -10.5l88 -72q6 -5 9 -10t3 -11q0 -10 -7 -17t-20 -7zM450 757q-5 0 -10.5 2t-11.5 5l-98 50q-26 14 -26 38q0 16 12 26.5t26 10.5q11 0 20 -4.5t16 -10.5l88 -72q6 -5 8.5 -10t2.5 -11q0 -10 -7 -17t-20 -7z" />
    <glyph glyph-name="uni0211" unicode="&#x211;" horiz-adv-x="401" 
d="M114 0q-17 0 -28.5 12t-11.5 29v436q0 17 11.5 28.5t28.5 11.5q18 0 29 -11.5t11 -28.5v-132l-12 21q6 31 21.5 60.5t39.5 53t55 37t68 13.5q22 0 40.5 -10.5t18.5 -29.5q0 -21 -11 -31t-25 -10q-13 0 -25 5.5t-30 5.5q-25 0 -49.5 -13.5t-45 -38.5t-33 -56.5
t-12.5 -67.5v-243q0 -17 -11.5 -29t-28.5 -12zM298 597q-6 0 -12.5 3.5t-12.5 7.5l-85 66q-11 7 -16.5 15.5t-5.5 19.5q0 17 12 26.5t25 9.5t22 -6t16 -13l74 -85q9 -10 9 -20t-7 -17t-19 -7zM141 597q-6 0 -12.5 3.5t-12.5 7.5l-85 66q-11 7 -16.5 15.5t-5.5 19.5
q0 17 12 26.5t25 9.5t22 -6t16 -13l74 -85q9 -10 9 -20t-7 -17t-19 -7z" />
    <glyph glyph-name="uni0212" unicode="&#x212;" horiz-adv-x="676" 
d="M134 0q-19 0 -32.5 12t-13.5 29v619q0 17 11.5 28.5t28.5 11.5h276q56 0 101 -25.5t71.5 -70t26.5 -102.5q0 -42 -16 -78.5t-44 -63t-64 -40.5l-22 16q34 -8 61 -28.5t44 -52t18 -73.5q2 -37 5 -59t9 -34.5t17 -19.5q14 -9 18.5 -24t-5.5 -29q-6 -9 -17 -12.5t-22 -2.5
t-19 6q-16 9 -31 26.5t-25 50.5t-10 90q0 32 -10 53t-27 34t-38 18t-43 5h-223l12 18v-261q0 -17 -10 -29t-27 -12zM159 356h245q29 2 54.5 20t42 50.5t16.5 73.5q0 53 -33.5 88t-84.5 35h-236l8 19v-304zM335 886q36 0 65 -12t49 -34t26 -50q5 -16 -2.5 -26.5t-21.5 -10.5
q-16 0 -24.5 7.5t-16.5 20.5q-8 21 -27.5 32.5t-47.5 11.5q-27 0 -47 -11.5t-28 -32.5q-7 -13 -16 -20.5t-24 -7.5q-14 0 -22 10t-3 26q7 28 26.5 50t49 34.5t64.5 12.5z" />
    <glyph glyph-name="uni0213" unicode="&#x213;" horiz-adv-x="401" 
d="M114 0q-17 0 -28.5 12t-11.5 29v436q0 17 11.5 28.5t28.5 11.5q18 0 29 -11.5t11 -28.5v-132l-12 21q6 31 21.5 60.5t39.5 53t55 37t68 13.5q22 0 40.5 -10.5t18.5 -29.5q0 -21 -11 -31t-25 -10q-13 0 -25 5.5t-30 5.5q-25 0 -49.5 -13.5t-45 -38.5t-33 -56.5
t-12.5 -67.5v-243q0 -17 -11.5 -29t-28.5 -12zM206 730q36 0 65 -14.5t49 -39.5t26 -57q5 -16 -2.5 -26.5t-21.5 -10.5q-16 0 -24.5 7.5t-16.5 20.5q-7 29 -27 44t-48 15q-27 0 -47 -15.5t-28 -43.5q-7 -13 -16 -20.5t-24 -7.5q-14 0 -22 10t-3 26q7 32 26.5 57.5t49 40
t64.5 14.5z" />
    <glyph glyph-name="uni0214" unicode="&#x214;" horiz-adv-x="710" 
d="M584 701q17 0 28 -12t11 -29v-397q0 -77 -35.5 -138t-95.5 -96.5t-136 -35.5q-77 0 -137.5 35.5t-95.5 96.5t-35 138v397q0 17 11.5 29t30.5 12q16 0 28.5 -12t12.5 -29v-397q0 -55 25 -98t67.5 -67.5t92.5 -24.5q51 0 94 24.5t69.5 67.5t26.5 98v397q0 17 10 29t28 12z
M290 754q-6 0 -11.5 2t-10.5 5l-99 50q-25 14 -25 38q0 16 11.5 26.5t26.5 10.5q10 0 19 -4.5t16 -10.5l88 -72q6 -5 9 -10t3 -11q0 -10 -7 -17t-20 -7zM470 757q-5 0 -10.5 2t-11.5 5l-98 50q-26 14 -26 38q0 16 12 26.5t26 10.5q11 0 20 -4.5t16 -10.5l88 -72
q6 -5 8.5 -10t2.5 -11q0 -10 -7 -17t-20 -7z" />
    <glyph glyph-name="uni0215" unicode="&#x215;" horiz-adv-x="575" 
d="M461 517q18 0 29 -11.5t11 -28.5v-273q0 -101 -56.5 -156.5t-157.5 -55.5q-100 0 -156.5 55.5t-56.5 156.5v273q0 17 11.5 28.5t28.5 11.5q18 0 29 -11.5t11 -28.5v-273q0 -68 35 -103t98 -35q65 0 99.5 35t34.5 103v273q0 17 11.5 28.5t28.5 11.5zM386 597
q-6 0 -12.5 3.5t-12.5 7.5l-85 66q-11 7 -16.5 15.5t-5.5 19.5q0 17 12 26.5t25 9.5t22 -6t16 -13l74 -85q9 -10 9 -20t-7 -17t-19 -7zM229 597q-6 0 -12.5 3.5t-12.5 7.5l-85 66q-11 7 -16.5 15.5t-5.5 19.5q0 17 12 26.5t25 9.5t22 -6t16 -13l74 -85q9 -10 9 -20t-7 -17
t-19 -7z" />
    <glyph glyph-name="uni0216" unicode="&#x216;" horiz-adv-x="710" 
d="M584 701q17 0 28 -12t11 -29v-397q0 -77 -35.5 -138t-95.5 -96.5t-136 -35.5q-77 0 -137.5 35.5t-95.5 96.5t-35 138v397q0 17 11.5 29t30.5 12q16 0 28.5 -12t12.5 -29v-397q0 -55 25 -98t67.5 -67.5t92.5 -24.5q51 0 94 24.5t69.5 67.5t26.5 98v397q0 17 10 29t28 12z
M355 886q36 0 65 -12t49 -34t26 -50q5 -16 -2.5 -26.5t-21.5 -10.5q-16 0 -24.5 7.5t-16.5 20.5q-8 21 -27.5 32.5t-47.5 11.5q-27 0 -47 -11.5t-28 -32.5q-7 -13 -16 -20.5t-24 -7.5q-14 0 -22 10t-3 26q7 28 26.5 50t49 34.5t64.5 12.5z" />
    <glyph glyph-name="uni0217" unicode="&#x217;" horiz-adv-x="575" 
d="M461 517q18 0 29 -11.5t11 -28.5v-273q0 -101 -56.5 -156.5t-157.5 -55.5q-100 0 -156.5 55.5t-56.5 156.5v273q0 17 11.5 28.5t28.5 11.5q18 0 29 -11.5t11 -28.5v-273q0 -68 35 -103t98 -35q65 0 99.5 35t34.5 103v273q0 17 11.5 28.5t28.5 11.5zM293 730
q36 0 65 -14.5t49 -39.5t26 -57q5 -16 -2.5 -26.5t-21.5 -10.5q-16 0 -24.5 7.5t-16.5 20.5q-7 29 -27 44t-48 15q-27 0 -47 -15.5t-28 -43.5q-7 -13 -16 -20.5t-24 -7.5q-14 0 -22 10t-3 26q7 32 26.5 57.5t49 40t64.5 14.5z" />
    <glyph glyph-name="uni0218" unicode="&#x218;" horiz-adv-x="574" 
d="M292 -10q-74 0 -130 22t-108 70q-7 7 -11.5 15.5t-4.5 18.5q0 16 11.5 28.5t28.5 12.5q14 0 25 -11q39 -38 84.5 -58t102.5 -20q44 0 79.5 14t56.5 39t21 58q-1 40 -23.5 66t-62 43.5t-91.5 29.5q-46 11 -84.5 27t-66.5 39.5t-43.5 57t-15.5 78.5q0 57 30 100t83 66.5
t122 23.5q61 0 115.5 -20t87.5 -55q20 -19 20 -37q0 -15 -12.5 -27.5t-28.5 -12.5q-11 0 -20 8q-17 19 -43 34t-57 24t-62 9q-46 0 -81 -13.5t-54.5 -38t-19.5 -58.5q0 -38 22 -62.5t59 -40t82 -27.5q49 -12 90.5 -27.5t71.5 -38.5t46.5 -58.5t16.5 -87.5q0 -55 -31 -98
t-84.5 -67.5t-120.5 -25.5zM355 -106q0 -21 -12 -39.5t-31 -30.5t-43 -12q-20 0 -29.5 7.5t-9.5 16.5q0 11 5.5 15.5t11.5 4.5q5 0 12 -2t18 -1q9 1 15 8.5t6 21.5q0 13 -10 13q-7 0 -10 -4.5t-14 -4.5q-14 0 -22 9.5t-8 22.5q0 19 16 30t42 11q27 0 45 -17t18 -49z" />
    <glyph glyph-name="uni0219" unicode="&#x219;" horiz-adv-x="474" 
d="M45 82q-9 13 -8 27.5t17 25.5q10 7 23.5 6t24.5 -13q28 -33 64 -52.5t88 -19.5q24 1 48 8t40.5 24.5t16.5 46.5q0 28 -17 44.5t-44 27t-59 18.5q-33 9 -65 20.5t-57.5 29t-41 44t-15.5 64.5q0 45 24.5 78t66 51t90.5 18q28 0 58.5 -6.5t59.5 -22t51 -42.5q9 -10 10 -25
t-13 -27q-11 -8 -24.5 -7t-22.5 10q-21 25 -52.5 38.5t-69.5 13.5q-24 0 -47 -7t-38.5 -23.5t-15.5 -45.5q1 -27 18 -44t46 -27.5t64 -20.5q32 -8 61.5 -18.5t53.5 -27.5t38 -43.5t14 -66.5q0 -46 -26 -79.5t-68.5 -51t-91.5 -17.5q-55 0 -108.5 21t-92.5 71zM300 -122
q0 -29 -16.5 -57.5t-41.5 -47t-51 -18.5q-9 0 -18 6.5t-9 22.5q0 17 11 20t24 9q15 8 23.5 19.5t8.5 26.5q0 12 -8.5 19.5t-20.5 7.5q-7 0 -14.5 -2t-12.5 -6q-7 5 -12 12t-5 18q1 22 22 37.5t48 15.5q32 0 52 -24t20 -59z" />
    <glyph glyph-name="uni021A" unicode="&#x21a;" horiz-adv-x="611" 
d="M305 0q-18 0 -30 12t-12 29v618h85v-618q0 -17 -12 -29t-31 -12zM73 624q-17 0 -28.5 10.5t-11.5 27.5t11.5 27.5t28.5 10.5h465q17 0 29 -10.5t12 -27.5q0 -18 -12 -28t-29 -10h-465zM374 -106q0 -21 -12 -39.5t-31 -30.5t-43 -12q-20 0 -29.5 7.5t-9.5 16.5
q0 11 5.5 15.5t11.5 4.5q5 0 12 -2t18 -1q9 1 15 8.5t6 21.5q0 13 -10 13q-7 0 -10 -4.5t-14 -4.5q-14 0 -22 9.5t-8 22.5q0 19 16 30t42 11q27 0 45 -17t18 -49z" />
    <glyph glyph-name="uni021B" unicode="&#x21b;" horiz-adv-x="363" 
d="M54 514h235q16 0 26.5 -11t10.5 -26q0 -16 -10.5 -26.5t-26.5 -10.5h-235q-15 0 -26 11t-11 27q0 15 11 25.5t26 10.5zM159 650q17 0 28 -11.5t11 -28.5v-483q0 -24 7 -36t18.5 -16.5t22.5 -4.5q10 0 17.5 3.5t17.5 3.5t18.5 -9.5t8.5 -24.5q0 -18 -21 -30.5t-47 -12.5
q-14 0 -34.5 2t-40.5 13t-33.5 36.5t-13.5 71.5v487q0 17 12 28.5t29 11.5zM269 -122q0 -29 -16.5 -57.5t-41.5 -47t-51 -18.5q-9 0 -18 6.5t-9 22.5q0 17 11 20t24 9q15 8 23.5 19.5t8.5 26.5q0 12 -8.5 19.5t-20.5 7.5q-7 0 -14.5 -2t-12.5 -6q-7 5 -12 12t-5 18
q1 22 22 37.5t48 15.5q32 0 52 -24t20 -59z" />
    <glyph glyph-name="uni022A" unicode="&#x22a;" horiz-adv-x="764" 
d="M719 350q0 -77 -25 -142.5t-70 -114.5t-107 -76t-135 -27q-74 0 -135.5 27t-106.5 76t-70 114.5t-25 142.5q0 78 25 143.5t70 114t106.5 75.5t135.5 27q73 0 135 -27t107 -75.5t70 -114t25 -143.5zM633 350q0 82 -32.5 145t-88.5 99t-130 36t-130.5 -36t-88.5 -99
t-32 -145q0 -81 32 -144.5t88.5 -99.5t130.5 -36t130 36t88.5 99.5t32.5 144.5zM473 770q-24 0 -36 10.5t-12 32.5v13q0 23 12.5 33t35.5 10q24 0 36 -10.5t12 -32.5v-13q0 -22 -12 -32.5t-36 -10.5zM292 770q-24 0 -36 10.5t-12 32.5v13q0 23 13 33t36 10t35 -10.5
t12 -32.5v-13q0 -22 -12 -32.5t-36 -10.5zM259 955q-36 0 -36 31q0 32 36 32h251q36 0 36 -32q0 -31 -36 -31h-251z" />
    <glyph glyph-name="uni022B" unicode="&#x22b;" horiz-adv-x="611" 
d="M565 260q0 -78 -34.5 -139t-93 -96t-131.5 -35t-132 35t-93.5 96t-34.5 139t34.5 139t93.5 96t132 35t131.5 -35t93 -96t34.5 -139zM485 260q0 58 -23.5 102t-64 69t-91.5 25t-91.5 -25t-64.5 -69t-24 -102q0 -57 24 -101t64.5 -69.5t91.5 -25.5t91.5 25.5t64 69.5
t23.5 101zM395 605q-23 0 -35 11t-12 32v13q0 23 13 33t36 10t35 -10.5t12 -32.5v-13q0 -23 -12 -33t-37 -10zM214 605q-23 0 -35 11t-12 32v13q0 22 12.5 32.5t35.5 10.5q24 0 36 -10t12 -33v-13q0 -23 -12 -33t-37 -10zM184 771q-35 0 -35 33q0 32 35 32h241q35 0 35 -32
q0 -33 -35 -33h-241z" />
    <glyph glyph-name="uni022C" unicode="&#x22c;" horiz-adv-x="764" 
d="M719 350q0 -77 -25 -142.5t-70 -114.5t-107 -76t-135 -27q-74 0 -135.5 27t-106.5 76t-70 114.5t-25 142.5q0 78 25 143.5t70 114t106.5 75.5t135.5 27q73 0 135 -27t107 -75.5t70 -114t25 -143.5zM633 350q0 82 -32.5 145t-88.5 99t-130 36t-130.5 -36t-88.5 -99
t-32 -145q0 -81 32 -144.5t88.5 -99.5t130.5 -36t130 36t88.5 99.5t32.5 144.5zM251 759q-16 0 -25.5 14.5t-7.5 38.5q4 33 30 54t65 21q27 0 53.5 -15t50.5 -30t41 -15q13 0 21 9t8 24q-3 16 5 25t21 9q18 0 27 -14.5t8 -37.5q-3 -20 -13.5 -38t-29 -28.5t-43.5 -10.5
q-28 0 -56.5 14.5t-53 29t-42.5 14.5q-12 0 -21 -8t-11 -24q2 -15 -6.5 -23.5t-20.5 -8.5zM259 976q-36 0 -36 31q0 32 36 32h251q36 0 36 -32q0 -31 -36 -31h-251z" />
    <glyph glyph-name="uni022D" unicode="&#x22d;" horiz-adv-x="611" 
d="M565 260q0 -78 -34.5 -139t-93 -96t-131.5 -35t-132 35t-93.5 96t-34.5 139t34.5 139t93.5 96t132 35t131.5 -35t93 -96t34.5 -139zM485 260q0 58 -23.5 102t-64 69t-91.5 25t-91.5 -25t-64.5 -69t-24 -102q0 -57 24 -101t64.5 -69.5t91.5 -25.5t91.5 25.5t64 69.5
t23.5 101zM176 589q-18 0 -27 13.5t-7 38.5q5 32 31.5 53t69.5 21q21 0 40.5 -9t37 -20.5t33.5 -21t29 -9.5t20.5 8.5t7.5 23.5q-3 16 5.5 25t21.5 9q19 0 27.5 -13.5t6.5 -36.5q-2 -21 -13.5 -38.5t-31.5 -28.5t-50 -11q-18 0 -37 9t-38.5 20.5t-36.5 20.5t-30 9
t-21.5 -7.5t-10.5 -23.5q2 -15 -6.5 -23.5t-20.5 -8.5zM184 816q-35 0 -35 33q0 32 35 32h241q35 0 35 -32q0 -33 -35 -33h-241z" />
    <glyph glyph-name="uni0230" unicode="&#x230;" horiz-adv-x="764" 
d="M719 350q0 -77 -25 -142.5t-70 -114.5t-107 -76t-135 -27q-74 0 -135.5 27t-106.5 76t-70 114.5t-25 142.5q0 78 25 143.5t70 114t106.5 75.5t135.5 27q73 0 135 -27t107 -75.5t70 -114t25 -143.5zM633 350q0 82 -32.5 145t-88.5 99t-130 36t-130.5 -36t-88.5 -99
t-32 -145q0 -81 32 -144.5t88.5 -99.5t130.5 -36t130 36t88.5 99.5t32.5 144.5zM381 760q-24 0 -36 10.5t-12 32.5v14q0 22 13 32.5t36 10.5q25 0 37 -10.5t12 -32.5v-14q0 -22 -12.5 -32.5t-37.5 -10.5zM259 955q-36 0 -36 31q0 32 36 32h251q36 0 36 -32q0 -31 -36 -31
h-251z" />
    <glyph glyph-name="uni0231" unicode="&#x231;" horiz-adv-x="611" 
d="M565 260q0 -78 -34.5 -139t-93 -96t-131.5 -35t-132 35t-93.5 96t-34.5 139t34.5 139t93.5 96t132 35t131.5 -35t93 -96t34.5 -139zM485 260q0 58 -23.5 102t-64 69t-91.5 25t-91.5 -25t-64.5 -69t-24 -102q0 -57 24 -101t64.5 -69.5t91.5 -25.5t91.5 25.5t64 69.5
t23.5 101zM306 597q-25 0 -37 10t-12 31v14q0 21 13 31t37 10t36 -10t12 -31v-14q0 -21 -12.5 -31t-36.5 -10zM184 775q-35 0 -35 33q0 32 35 32h241q35 0 35 -32q0 -33 -35 -33h-241z" />
    <glyph glyph-name="uni0232" unicode="&#x232;" horiz-adv-x="572" 
d="M514 704q17 0 28.5 -12.5t11.5 -28.5q0 -6 -1.5 -12.5t-5.5 -12.5l-232 -323l13 49v-323q0 -17 -11.5 -29t-27.5 -12q-18 0 -29.5 12t-11.5 29v315l7 -26l-225 304q-6 8 -8.5 15.5t-2.5 14.5q0 17 14 28.5t28 11.5q20 0 33 -19l207 -284l-19 3l199 280q13 20 33 20z
M163 776q-36 0 -36 31q0 32 36 32h251q36 0 36 -32q0 -31 -36 -31h-251z" />
    <glyph glyph-name="uni0233" unicode="&#x233;" horiz-adv-x="575" 
d="M461 525q17 0 28.5 -11.5t11.5 -28.5v-436q0 -84 -33 -139.5t-88.5 -82.5t-125.5 -27q-39 0 -75 8t-59 21q-19 9 -26.5 22.5t-2.5 28.5q7 18 20.5 25t28.5 0q16 -7 46.5 -19.5t68.5 -12.5q52 0 89 20t57 58.5t20 95.5v71l12 -25q-16 -31 -43 -54t-62 -36t-77 -13
q-57 0 -96.5 24.5t-60 68t-20.5 100.5v302q0 17 11.5 28.5t28.5 11.5q18 0 29 -11.5t11 -28.5v-284q0 -68 30 -102.5t93 -34.5q40 0 72.5 18t52 49.5t19.5 69.5v284q0 17 11 28.5t29 11.5zM166 603q-35 0 -35 33q0 32 35 32h241q35 0 35 -32q0 -33 -35 -33h-241z" />
    <glyph glyph-name="uni0237" unicode="&#x237;" horiz-adv-x="252" 
d="M168 -34q0 -51 -22.5 -87t-56.5 -56t-71 -20q-17 0 -27.5 11t-10.5 26v7q0 15 10 24t25 13q23 6 39 18.5t25 33t9 48.5v493q0 17 11.5 29t28.5 12q18 0 29 -12t11 -29v-511z" />
    <glyph glyph-name="uni0259" unicode="&#x259;" horiz-adv-x="573" 
d="M261 530q80 0 140 -33.5t93 -93.5t33 -138q0 -86 -34.5 -147.5t-89.5 -94.5t-117 -33q-47 0 -89.5 17.5t-76 50t-53.5 78t-21 101.5q1 16 13 26.5t28 10.5h395l18 -69h-385l16 15v-23q4 -40 27 -70t57 -46t71 -16q30 0 59.5 11t53 34t37.5 60t14 90q0 58 -23.5 102
t-65.5 69t-97 25q-35 0 -61.5 -9t-45 -22t-31.5 -28q-13 -9 -26 -9q-14 0 -24 10.5t-10 23.5q0 17 16 31q29 31 77 54t102 23z" />
    <glyph glyph-name="uni0272" unicode="&#x272;" horiz-adv-x="586" 
d="M1 -197q-15 0 -25 11.5t-10 25.5q0 21 9 30t26 14q23 6 39 18.5t25 33t9 48.5v493q0 17 11.5 28.5t28.5 11.5q18 0 29 -11.5t11 -28.5v-71l-20 -22q5 26 23 52.5t45 47.5t60 33.5t69 12.5q68 0 107 -28t55.5 -75t16.5 -105v-281q0 -17 -11.5 -29t-28.5 -12t-28.5 12
t-11.5 29v279q0 38 -11.5 68.5t-38 49t-72.5 18.5q-42 0 -77 -18.5t-56 -49t-21 -68.5v-354q0 -46 -13 -75.5t-33 -47.5t-41.5 -26.5t-39.5 -11t-26 -2.5z" />
    </font>
</defs>
</svg>
