<?xml version="1.0" standalone="no"?>
<!DOCTYPE svg PUBLIC "-//W3C//DTD SVG 1.1//EN" "http://www.w3.org/Graphics/SVG/1.1/DTD/svg11.dtd" >
<svg xmlns="http://www.w3.org/2000/svg" xmlns:xlink="http://www.w3.org/1999/xlink" version="1.1">
<metadata>
Created by FontForge 20201107 at Tue May 11 19:17:13 2021
 By 
Copyright 2019 The Quicksand Project Authors (https://github.com/andrew-paglinawan/QuicksandFamily.git), with Reserved Font Name "Quicksand"
</metadata>
<defs>
<font id="Quicksand-Bold" horiz-adv-x="0" >
  <font-face 
    font-family="Quicksand"
    font-weight="700"
    font-stretch="normal"
    units-per-em="1000"
    panose-1="0 0 0 0 0 0 0 0 0 0"
    ascent="800"
    descent="-200"
    x-height="525"
    cap-height="700"
    bbox="-203 -303 1328 1183"
    underline-thickness="50"
    underline-position="-125"
    unicode-range="U+000D-FB02"
  />
<missing-glyph horiz-adv-x="584" 
d="M40 665q0 35 35 35h434q35 0 35 -35v-630q0 -35 -35 -35h-434q-35 0 -35 35v630zM95 670q-7 0 -3 -6l416 -599q2 -3 4 -2.5t2 4.5v598q0 5 -5 5h-414zM70 35q0 -5 5 -5h413q7 0 3 6l-415 599q-2 3 -4 2.5t-2 -4.5v-598z" />
    <glyph glyph-name="fi" unicode="fi" horiz-adv-x="673" 
d="M340 740q22 0 43 -6t35 -19.5t14 -35.5q0 -25 -14.5 -39.5t-33.5 -14.5q-9 0 -27 4.5t-35 4.5q-25 0 -38.5 -11t-18.5 -25.5t-5 -25.5v-511q0 -26 -17 -43.5t-43 -17.5t-43 17.5t-17 43.5v510q0 71 50 120t150 49zM351 525q24 0 40 -15.5t16 -39.5t-16 -39.5t-40 -15.5
h-265q-24 0 -40 15.5t-16 39.5t16 39.5t40 15.5h265zM615 61q0 -26 -17 -43.5t-43 -17.5t-43 17.5t-17 43.5v413q0 26 17 43.5t43 17.5t43 -17.5t17 -43.5v-413zM554 600q-34 0 -48 11t-14 39v19q0 29 15.5 39.5t47.5 10.5q35 0 49 -11t14 -39v-19q0 -29 -15 -39.5
t-49 -10.5z" />
    <glyph glyph-name="fl" unicode="fl" horiz-adv-x="707" 
d="M340 740q22 0 43 -6t35 -19.5t14 -35.5q0 -25 -14.5 -39.5t-33.5 -14.5q-9 0 -27 4.5t-35 4.5q-25 0 -38.5 -11t-18.5 -25.5t-5 -25.5v-511q0 -26 -17 -43.5t-43 -17.5t-43 17.5t-17 43.5v510q0 71 50 120t150 49zM351 525q24 0 40 -15.5t16 -39.5t-16 -39.5t-40 -15.5
h-265q-24 0 -40 15.5t-16 39.5t16 39.5t40 15.5h265zM632 61q0 -26 -17.5 -43.5t-43.5 -17.5q-25 0 -42 17.5t-17 43.5v618q0 26 17.5 43.5t43.5 17.5t42.5 -17.5t16.5 -43.5v-618z" />
    <glyph glyph-name="f_f" unicode="ff" horiz-adv-x="874" 
d="M340 740q22 0 43 -6t35 -19.5t14 -35.5q0 -25 -14.5 -39.5t-33.5 -14.5q-9 0 -27 4.5t-35 4.5q-25 0 -38.5 -11t-18.5 -25.5t-5 -25.5v-511q0 -26 -17 -43.5t-43 -17.5t-43 17.5t-17 43.5v510q0 71 50 120t150 49zM351 525q24 0 40 -15.5t16 -39.5t-16 -39.5t-40 -15.5
h-265q-24 0 -40 15.5t-16 39.5t16 39.5t40 15.5h265zM777 740q22 0 43 -6t35 -19.5t14 -35.5q0 -25 -14.5 -39.5t-33.5 -14.5q-9 0 -27 4.5t-35 4.5q-25 0 -38.5 -11t-18.5 -25.5t-5 -25.5v-511q0 -26 -17 -43.5t-43 -17.5t-43 17.5t-17 43.5v510q0 71 50 120t150 49z
M788 525q24 0 40 -15.5t16 -39.5t-16 -39.5t-40 -15.5h-265q-24 0 -40 15.5t-16 39.5t16 39.5t40 15.5h265z" />
    <glyph glyph-name="f_f_i" unicode="ffi" horiz-adv-x="1110" 
d="M340 740q22 0 43 -6t35 -19.5t14 -35.5q0 -25 -14.5 -39.5t-33.5 -14.5q-9 0 -27 4.5t-35 4.5q-25 0 -38.5 -11t-18.5 -25.5t-5 -25.5v-511q0 -26 -17 -43.5t-43 -17.5t-43 17.5t-17 43.5v510q0 71 50 120t150 49zM351 525q24 0 40 -15.5t16 -39.5t-16 -39.5t-40 -15.5
h-265q-24 0 -40 15.5t-16 39.5t16 39.5t40 15.5h265zM777 740q22 0 43 -6t35 -19.5t14 -35.5q0 -25 -14.5 -39.5t-33.5 -14.5q-9 0 -27 4.5t-35 4.5q-25 0 -38.5 -11t-18.5 -25.5t-5 -25.5v-511q0 -26 -17 -43.5t-43 -17.5t-43 17.5t-17 43.5v510q0 71 50 120t150 49z
M788 525q24 0 40 -15.5t16 -39.5t-16 -39.5t-40 -15.5h-265q-24 0 -40 15.5t-16 39.5t16 39.5t40 15.5h265zM1052 61q0 -26 -17 -43.5t-43 -17.5t-43 17.5t-17 43.5v413q0 26 17 43.5t43 17.5t43 -17.5t17 -43.5v-413zM991 600q-34 0 -48 11t-14 39v19q0 29 15.5 39.5
t47.5 10.5q35 0 49 -11t14 -39v-19q0 -29 -15 -39.5t-49 -10.5z" />
    <glyph glyph-name="f_f_l" unicode="ffl" horiz-adv-x="1144" 
d="M340 740q22 0 43 -6t35 -19.5t14 -35.5q0 -25 -14.5 -39.5t-33.5 -14.5q-9 0 -27 4.5t-35 4.5q-25 0 -38.5 -11t-18.5 -25.5t-5 -25.5v-511q0 -26 -17 -43.5t-43 -17.5t-43 17.5t-17 43.5v510q0 71 50 120t150 49zM351 525q24 0 40 -15.5t16 -39.5t-16 -39.5t-40 -15.5
h-265q-24 0 -40 15.5t-16 39.5t16 39.5t40 15.5h265zM777 740q22 0 43 -6t35 -19.5t14 -35.5q0 -25 -14.5 -39.5t-33.5 -14.5q-9 0 -27 4.5t-35 4.5q-25 0 -38.5 -11t-18.5 -25.5t-5 -25.5v-511q0 -26 -17 -43.5t-43 -17.5t-43 17.5t-17 43.5v510q0 71 50 120t150 49z
M788 525q24 0 40 -15.5t16 -39.5t-16 -39.5t-40 -15.5h-265q-24 0 -40 15.5t-16 39.5t16 39.5t40 15.5h265zM1069 61q0 -26 -17.5 -43.5t-43.5 -17.5q-25 0 -42 17.5t-17 43.5v618q0 26 17.5 43.5t43.5 17.5t42.5 -17.5t16.5 -43.5v-618z" />
    <glyph glyph-name=".notdef" horiz-adv-x="584" 
d="M40 665q0 35 35 35h434q35 0 35 -35v-630q0 -35 -35 -35h-434q-35 0 -35 35v630zM95 670q-7 0 -3 -6l416 -599q2 -3 4 -2.5t2 4.5v598q0 5 -5 5h-414zM70 35q0 -5 5 -5h413q7 0 3 6l-415 599q-2 3 -4 2.5t-2 -4.5v-598z" />
    <glyph glyph-name=".null" 
 />
    <glyph glyph-name="nonmarkingreturn" horiz-adv-x="333" 
 />
    <glyph glyph-name="CR" unicode="&#xd;" horiz-adv-x="280" 
 />
    <glyph glyph-name="space" unicode=" " horiz-adv-x="280" 
 />
    <glyph glyph-name="exclam" unicode="!" horiz-adv-x="267" 
d="M134 221q-34 0 -37 38l-29 368q-2 31 16.5 52t48.5 21t49 -21t16 -52l-28 -368q-3 -38 -36 -38zM127 0q-29 0 -44.5 15.5t-15.5 44.5v17q0 29 15.5 44.5t44.5 15.5h13q29 0 44.5 -15.5t15.5 -44.5v-17q0 -29 -15.5 -44.5t-44.5 -15.5h-13z" />
    <glyph glyph-name="quotedbl" unicode="&#x22;" horiz-adv-x="430" 
d="M50 652q5 48 52 48h29q28 0 39 -15.5t3 -41.5l-68 -209q-12 -33 -42 -33q-32 0 -29 41zM270 652q5 48 52 48h29q28 0 39 -15.5t2 -41.5l-68 -209q-12 -33 -42 -33q-32 0 -29 42z" />
    <glyph glyph-name="numbersign" unicode="#" horiz-adv-x="693" 
d="M161 0q-26 0 -40.5 19.5t-10.5 47.5l101 590q3 20 17 31.5t33 11.5q27 0 42 -19.5t10 -47.5l-101 -590q-3 -19 -17 -31t-34 -12zM127 439q-23 0 -38.5 15.5t-15.5 38.5q0 22 15.5 36t38.5 14h476q23 0 38.5 -15.5t15.5 -38.5q0 -22 -15.5 -36t-38.5 -14h-476zM432 0
q-27 0 -42 19.5t-10 47.5l101 590q3 20 17 31.5t34 11.5q26 0 41 -19.5t10 -47.5l-101 -590q-3 -19 -16.5 -31t-33.5 -12zM90 161q-23 0 -38.5 15.5t-15.5 38.5q0 22 15.5 36t38.5 14h477q23 0 38.5 -15.5t15.5 -38.5q0 -22 -15.5 -36t-38.5 -14h-477z" />
    <glyph glyph-name="dollar" unicode="$" horiz-adv-x="597" 
d="M300 -10q-70 0 -126 17.5t-107 61.5q-13 11 -20 25t-7 28q0 23 16.5 40.5t41.5 17.5q19 0 34 -12q38 -31 75.5 -47t92.5 -16q37 0 68 11.5t50 31t19 44.5q0 30 -18 51t-55 35.5t-94 22.5q-54 8 -95 24.5t-68.5 42t-41.5 60t-14 77.5q0 65 33.5 111t90.5 70t126 24
q65 0 120.5 -19.5t90.5 -49.5q29 -23 29 -53q0 -22 -17 -40t-40 -18q-15 0 -27 9q-16 14 -43 26.5t-57 21t-56 8.5q-43 0 -72.5 -11t-44.5 -30t-15 -44q0 -30 17.5 -49.5t50.5 -31t79 -20.5q60 -11 105.5 -26t75.5 -38.5t45 -59t15 -86.5q0 -65 -36 -112t-94.5 -72
t-126.5 -25zM372 -64q0 -26 -17.5 -43.5t-43.5 -17.5q-25 0 -42 17.5t-17 43.5v804q0 26 17.5 43.5t43.5 17.5t42.5 -17.5t16.5 -43.5v-804z" />
    <glyph glyph-name="percent" unicode="%" horiz-adv-x="816" 
d="M194 320q-48 0 -85 26t-58 70t-21 98q0 55 21 99t58 70t85 26q49 0 85.5 -26t57 -70t20.5 -99q0 -54 -22 -98t-58.5 -70t-82.5 -26zM194 409q30 0 46.5 30t16.5 75t-16 75t-47 30q-30 0 -47 -30t-17 -75t16.5 -75t47.5 -30zM623 -10q-46 0 -83 26t-59 70t-22 98
q0 55 21 99t58 70t85 26q49 0 85.5 -26t57 -70t20.5 -99q0 -54 -22 -98t-58.5 -70t-82.5 -26zM623 79q30 0 46.5 30t16.5 75t-16 75t-47 30q-30 0 -47 -30t-17 -75t16.5 -75t47.5 -30zM206 -2q-16 0 -34 13.5t-18 35.5q0 13 10 30l398 601q18 24 41 24q17 0 34.5 -13
t17.5 -36q0 -13 -10 -30l-398 -601q-18 -24 -41 -24z" />
    <glyph glyph-name="ampersand" unicode="&#x26;" horiz-adv-x="709" 
d="M279 -10q-71 0 -127.5 31t-89 81t-32.5 107q0 50 17.5 91.5t53 73.5t90.5 54l78 -81q-70 -15 -93.5 -45.5t-23.5 -74.5q0 -30 15 -58.5t49 -47t91 -18.5q47 0 84.5 21.5t65 57t45 79t23.5 88.5q2 16 12.5 25t35.5 9q26 0 41 -21t11 -49q-9 -60 -34.5 -117.5t-68 -104
t-103 -74t-140.5 -27.5zM635 -2q-12 0 -20.5 3t-13.5 7q-72 62 -131.5 114.5t-109.5 100.5t-94 98q-35 40 -64 72t-46.5 62.5t-17.5 67.5q0 49 26.5 91.5t75.5 69t116 26.5q69 0 124.5 -23t74.5 -61q1 -1 5 -12.5t4 -26.5q0 -19 -14 -33t-38 -14q-16 0 -25 6t-14 12
q-22 29 -50.5 40.5t-66.5 11.5q-45 0 -68.5 -24t-23.5 -57q0 -31 22 -61.5t50.5 -57.5t47.5 -48q31 -33 69.5 -70.5t77.5 -73t72.5 -66t54.5 -50.5q13 -12 19.5 -24t6.5 -29q0 -13 -11.5 -32t-37.5 -19z" />
    <glyph glyph-name="quotesingle" unicode="'" horiz-adv-x="212" 
d="M50 652q5 48 52 48h31q28 0 39 -15.5t2 -41.5l-68 -209q-12 -33 -43 -33q-32 0 -29 41z" />
    <glyph glyph-name="parenleft" unicode="(" horiz-adv-x="357" 
d="M292 -182q-15 0 -27 8q-76 51 -128.5 118.5t-79.5 147.5t-27 167t27 167t79.5 147.5t128.5 118.5q12 8 27 8q24 0 37 -18t13 -34q0 -23 -21 -40q-57 -45 -95 -100.5t-56.5 -118.5t-18.5 -130t17.5 -131t55.5 -119.5t97 -98.5q21 -15 21 -40q0 -18 -14.5 -35t-35.5 -17z
" />
    <glyph glyph-name="parenright" unicode=")" horiz-adv-x="357" 
d="M65 -182q-24 0 -37 18t-13 34q0 24 21 40q58 45 95.5 100.5t56 118.5t18.5 130t-17.5 131t-55 120t-97.5 98q-21 15 -21 40q0 18 14.5 35t35.5 17q15 0 27 -8q77 -51 129 -118.5t79 -147.5t27 -167t-27 -167t-79 -147.5t-129 -118.5q-12 -8 -27 -8z" />
    <glyph glyph-name="asterisk" unicode="*" horiz-adv-x="363" 
d="M181 382q-14 0 -22.5 10t-7.5 25l9 79q1 3 -1 4t-5 -1l-65 -47q-12 -9 -25 -6.5t-21 15.5q-9 16 -3.5 28t18.5 17l73 33q3 1 3 3t-3 3l-73 33q-14 6 -18 19t3 26q8 13 21 15.5t25 -5.5l65 -48q3 -2 5 -1t1 4l-9 79q-1 15 8 25t24 10q14 0 23 -10t7 -25l-9 -79q-1 -3 1 -4
t5 1l65 47q12 9 25.5 6.5t20.5 -15.5q9 -16 3.5 -28t-18.5 -17l-73 -33q-3 -1 -3 -3t3 -3l73 -33q14 -6 18.5 -19t-3.5 -26q-7 -13 -20.5 -15.5t-25.5 5.5l-65 48q-3 2 -5 1t-1 -4l9 -79q2 -15 -7.5 -25t-24.5 -10z" />
    <glyph glyph-name="plus" unicode="+" horiz-adv-x="578" 
d="M96 276q-24 0 -40 16t-16 40t16 39t40 15h407q24 0 40 -15.5t16 -39.5t-16 -39.5t-40 -15.5h-407zM298 81q-28 0 -46.5 18t-18.5 46v390q0 28 19 46t47 18q29 0 46.5 -18t17.5 -46v-390q0 -28 -18 -46t-47 -18z" />
    <glyph glyph-name="comma" unicode="," horiz-adv-x="275" 
d="M217 8q0 -33 -18.5 -66.5t-48 -56t-62.5 -22.5q-11 0 -23.5 9t-12.5 31q0 23 14.5 27.5t24.5 9.5q13 7 20.5 16.5t7.5 23.5q0 11 -10.5 19.5t-27.5 8.5q-6 0 -14 -1.5t-14 -5.5q-10 5 -17.5 12.5t-7.5 24.5q0 31 28.5 53.5t66.5 22.5q43 0 68.5 -29t25.5 -77z" />
    <glyph glyph-name="hyphen" unicode="-" horiz-adv-x="396" 
d="M111 247q-26 0 -43.5 17t-17.5 43t17.5 42.5t43.5 16.5h174q26 0 43.5 -17.5t17.5 -43.5q0 -25 -17.5 -41.5t-43.5 -16.5h-174z" />
    <glyph glyph-name="period" unicode="." horiz-adv-x="249" 
d="M118 1q-29 0 -44.5 15.5t-15.5 44.5v17q0 29 15.5 44.5t44.5 15.5h13q29 0 44.5 -15.5t15.5 -44.5v-17q0 -29 -15.5 -44.5t-44.5 -15.5h-13z" />
    <glyph glyph-name="slash" unicode="/" horiz-adv-x="568" 
d="M84 -134q-17 0 -35 14t-18 36q0 12 6 24l406 831q7 14 19 22t25 8q17 0 34.5 -13.5t17.5 -36.5q0 -12 -6 -24l-405 -831q-7 -14 -18.5 -22t-25.5 -8z" />
    <glyph glyph-name="zero" unicode="0" horiz-adv-x="614" 
d="M307 -10q-86 0 -145.5 45.5t-90.5 127t-31 187.5q0 107 31 188t90.5 126.5t145.5 45.5t145.5 -45.5t90.5 -126.5t31 -188q0 -106 -31 -187.5t-90.5 -127t-145.5 -45.5zM307 110q42 0 72.5 26.5t47.5 80t17 133.5q0 81 -17 134t-47.5 79.5t-72.5 26.5q-41 0 -72 -26.5
t-48 -79.5t-17 -134q0 -80 17 -133.5t48 -80t72 -26.5z" />
    <glyph glyph-name="one" unicode="1" horiz-adv-x="389" 
d="M238 0q-28 0 -46 17.5t-18 43.5v504l14 -22l-73 -54q-14 -11 -35 -11q-24 0 -42 18t-18 43q0 32 31 52l144 96q10 7 22.5 10t23.5 3q29 0 46 -17.5t17 -43.5v-578q0 -26 -18.5 -43.5t-47.5 -17.5z" />
    <glyph glyph-name="two" unicode="2" horiz-adv-x="569" 
d="M458 110q24 0 40 -16t16 -40q0 -23 -16 -38.5t-40 -15.5h-340q-26 0 -41 16t-15 41t18 44l218 233q37 40 58.5 82t21.5 73q0 50 -29 80.5t-77 30.5q-19 0 -39 -9t-38.5 -25t-34.5 -37q-12 -16 -24 -20t-22 -4q-22 0 -40.5 16.5t-18.5 38.5q0 17 11.5 33t28.5 33
q25 25 56 44t64 29.5t64 10.5q67 0 116.5 -26.5t76.5 -75t27 -114.5q0 -55 -32.5 -122.5t-87.5 -126.5l-135 -144l-11 9h225z" />
    <glyph glyph-name="three" unicode="3" horiz-adv-x="537" 
d="M112 141q9 0 19.5 -3t23.5 -12q17 -13 40.5 -23t54.5 -10t58.5 15.5t45.5 44t18 68.5q0 38 -15.5 63t-41 38t-54.5 13q-22 0 -36.5 -4t-28 -8.5t-31.5 -4.5q-23 0 -35.5 16t-12.5 38q0 14 5.5 25t16.5 24l176 187l27 -23h-246q-24 0 -40 16t-16 40q0 23 16 38.5t40 15.5
h306q31 0 46.5 -17t15.5 -43q0 -13 -7 -25.5t-17 -22.5l-177 -190l-27 34q11 5 30.5 9t32.5 4q59 0 102.5 -30.5t67 -79t23.5 -104.5q0 -74 -33 -128t-93 -83t-140 -29q-37 0 -73 9t-62 24q-22 12 -29.5 26.5t-7.5 27.5q0 23 16.5 43.5t41.5 20.5z" />
    <glyph glyph-name="four" unicode="4" horiz-adv-x="588" 
d="M389 0q-25 0 -42 17.5t-17 43.5v470l21 -5l-193 -239l-5 13h354q24 0 40 -16t16 -40q0 -23 -16 -38.5t-40 -15.5h-437q-21 0 -40.5 17t-19.5 42q0 22 15 40l316 387q8 11 21 17.5t29 6.5q26 0 42.5 -17.5t16.5 -43.5v-578q0 -26 -17.5 -43.5t-43.5 -17.5z" />
    <glyph glyph-name="five" unicode="5" horiz-adv-x="576" 
d="M241 -10q-37 0 -79 11.5t-69 33.5q-13 11 -20.5 28.5t-7.5 33.5q0 17 14.5 32t41.5 15q18 0 45 -19q16 -10 35 -18t39 -8q48 0 83 17.5t54 48.5t19 73q0 38 -17.5 65t-46 42t-61.5 15q-31 0 -54 -10t-42 -20.5t-38 -10.5q-33 0 -49 14.5t-20 34.5t-2 36l31 243
q4 21 20.5 34.5t39.5 13.5h289q24 0 40 -16t16 -40q0 -23 -16 -38.5t-40 -15.5h-258l11 9l-27 -203l-13 38q6 10 26 19t46 15.5t51 6.5q67 0 120 -30.5t83.5 -83t30.5 -118.5q0 -75 -34 -131t-95.5 -86.5t-145.5 -30.5z" />
    <glyph glyph-name="six" unicode="6" horiz-adv-x="553" 
d="M285 -10q-54 0 -97.5 22.5t-74 61.5t-47 88t-16.5 101q0 34 7.5 82t26.5 101t53 103t86.5 90t128.5 61q12 3 23 3q23 0 41.5 -12t18.5 -44q0 -22 -14.5 -38.5t-38.5 -23.5q-34 -10 -67.5 -29.5t-62 -47.5t-49 -63.5t-29.5 -76.5l-27 1q14 17 34.5 36.5t50 34t69.5 14.5
q39 0 77.5 -18t70 -49.5t50.5 -74t19 -90.5q0 -64 -31.5 -117t-84 -84t-117.5 -31zM285 100q32 0 57.5 16t40.5 44t15 62q0 35 -15 62.5t-40.5 43.5t-57.5 16t-57.5 -16t-40.5 -43.5t-15 -62.5q0 -34 15 -62t40.5 -44t57.5 -16z" />
    <glyph glyph-name="seven" unicode="7" horiz-adv-x="549" 
d="M200 -5q-25 0 -43.5 16.5t-18.5 41.5q0 14 6 27l245 531l11 -27h-289q-24 0 -40 16t-16 40q0 23 16 38.5t40 15.5h348q26 0 45.5 -16.5t19.5 -42.5q0 -13 -6 -27l-263 -575q-7 -18 -22.5 -28t-32.5 -10z" />
    <glyph glyph-name="eight" unicode="8" horiz-adv-x="548" 
d="M386 355l-2 23q38 -17 66 -44t43 -59t15 -66q0 -57 -31.5 -104.5t-84.5 -76t-118 -28.5t-118 28.5t-84.5 76t-31.5 104.5q0 46 19.5 79.5t49 56.5t58.5 38l-8 -28q-25 10 -48.5 28.5t-38.5 47.5t-15 68q0 56 29 101.5t78.5 72.5t109.5 27q61 0 109.5 -27t77.5 -72.5
t29 -101.5q0 -43 -17 -72t-41 -46t-46 -26zM177 497q0 -27 12.5 -48t34.5 -33.5t50 -12.5t49.5 12.5t34 33.5t12.5 48q0 40 -27.5 66.5t-68.5 26.5q-42 0 -69.5 -26.5t-27.5 -66.5zM274 110q48 0 81 29.5t33 71.5q0 29 -15 52t-41 36.5t-58 13.5t-58 -13.5t-41 -36.5
t-15 -52q0 -42 33 -71.5t81 -29.5z" />
    <glyph glyph-name="nine" unicode="9" horiz-adv-x="568" 
d="M283 713q54 0 97.5 -22.5t74 -61.5t47 -87.5t16.5 -101.5q0 -34 -7.5 -83t-26.5 -103.5t-53 -106t-86.5 -92.5t-128.5 -62q-12 -3 -23 -3q-23 0 -41.5 12.5t-18.5 43.5q0 23 14.5 39t38.5 23q46 14 89.5 46.5t75.5 79t43 101.5l27 -1q-13 -16 -33.5 -36t-50 -34.5
t-70.5 -14.5q-66 0 -114.5 28.5t-75.5 81t-27 122.5q0 63 31.5 116t84.5 84.5t117 31.5zM283 603q-32 0 -57.5 -16.5t-40.5 -44t-15 -61.5q0 -37 14 -64.5t39.5 -42.5t59.5 -15q32 0 57.5 16t40.5 44t15 62q0 35 -15 62.5t-40.5 43.5t-57.5 16z" />
    <glyph glyph-name="colon" unicode=":" horiz-adv-x="273" 
d="M130 391q-29 0 -44.5 15.5t-15.5 44.5v17q0 29 15.5 44.5t44.5 15.5h13q29 0 44.5 -15.5t15.5 -44.5v-17q0 -29 -15.5 -44.5t-44.5 -15.5h-13zM130 0q-29 0 -44.5 15.5t-15.5 44.5v17q0 29 15.5 44.5t44.5 15.5h13q29 0 44.5 -15.5t15.5 -44.5v-17q0 -29 -15.5 -44.5
t-44.5 -15.5h-13z" />
    <glyph glyph-name="semicolon" unicode=";" horiz-adv-x="294" 
d="M156 391q-29 0 -44.5 15.5t-15.5 44.5v17q0 29 15.5 44.5t44.5 15.5h13q29 0 44.5 -15.5t15.5 -44.5v-17q0 -29 -15.5 -44.5t-44.5 -15.5h-13zM249 8q0 -33 -18.5 -66.5t-48 -56t-62.5 -22.5q-11 0 -23.5 9t-12.5 31q0 23 14.5 27.5t24.5 9.5q13 7 20.5 16.5t7.5 23.5
q0 11 -10.5 19.5t-27.5 8.5q-6 0 -14 -1.5t-14 -5.5q-10 5 -17.5 12.5t-7.5 24.5q0 31 28.5 53.5t66.5 22.5q43 0 68.5 -29t25.5 -77z" />
    <glyph glyph-name="less" unicode="&#x3c;" horiz-adv-x="525" 
d="M424 72q-11 0 -23.5 6.5t-26.5 14.5l-325 191q-12 8 -18 20.5t-6 25.5q0 14 6 26.5t18 19.5l325 187q13 8 24.5 12.5t21.5 4.5q20 0 37.5 -19.5t17.5 -40.5q0 -10 -5.5 -19.5t-16.5 -16.5l-347 -201l-7 100l353 -211q12 -7 17 -17.5t5 -21.5q0 -24 -16.5 -42.5
t-33.5 -18.5z" />
    <glyph glyph-name="equal" unicode="=" horiz-adv-x="619" 
d="M109 372q-25 0 -42 16.5t-17 39.5t17 38.5t42 15.5h401q26 0 42.5 -15.5t16.5 -38.5t-16.5 -39.5t-42.5 -16.5h-401zM109 178q-25 0 -42 16.5t-17 39.5t17 38.5t42 15.5h401q26 0 42.5 -15.5t16.5 -38.5t-16.5 -39.5t-42.5 -16.5h-401z" />
    <glyph glyph-name="greater" unicode="&#x3e;" horiz-adv-x="525" 
d="M105 84q-20 0 -37.5 19.5t-17.5 40.5q0 11 5.5 20t16.5 16l347 201l7 -100l-353 211q-12 7 -17 17.5t-5 21.5q0 24 17 42.5t33 18.5q11 0 23.5 -6.5t26.5 -14.5l325 -191q12 -7 18 -19.5t6 -26.5t-6 -26.5t-18 -19.5l-325 -187q-13 -7 -24 -12t-22 -5z" />
    <glyph glyph-name="question" unicode="?" horiz-adv-x="527" 
d="M156 316q0 26 17 43.5t43 17.5q41 0 74 12.5t52.5 40.5t19.5 74q0 34 -16.5 60t-45 41t-64.5 15q-28 0 -52.5 -10t-44.5 -27q-16 -14 -38.5 -20.5t-45.5 10.5q-24 18 -26 43t19 46q36 37 84.5 57.5t103.5 20.5q69 0 124.5 -31.5t88.5 -84.5t33 -120q0 -50 -15 -88.5
t-42.5 -66t-64 -44t-79.5 -23.5q-2 -1 -3.5 -2t-1.5 -3v-37q0 -26 -17 -43.5t-43 -17.5t-43 17.5t-17 43.5v76zM211 0q-29 0 -44.5 15.5t-15.5 44.5v17q0 29 15.5 44.5t44.5 15.5h13q29 0 44.5 -15.5t15.5 -44.5v-17q0 -29 -15.5 -44.5t-44.5 -15.5h-13z" />
    <glyph glyph-name="at" unicode="@" horiz-adv-x="964" 
d="M657 55q-33 0 -62 15.5t-44 43.5t-9 63l8 45l14 -32q-15 -54 -42.5 -83.5t-60.5 -40.5t-66 -11q-37 0 -71.5 20t-56 57t-21.5 88q0 47 18.5 97.5t51 94.5t76 71t93.5 27q43 0 76 -30t37 -84l-27 -65l21 136q2 14 15 27t40 13q35 0 46.5 -15.5t6.5 -43.5l-40 -252
q-5 -34 8 -49t32 -15q30 0 56.5 23t46 61t31 85t11.5 95q0 70 -33 123t-93.5 83t-142.5 30q-96 0 -178.5 -28.5t-145 -83.5t-97.5 -134t-35 -180q0 -54 16.5 -105.5t51.5 -93.5t91 -66.5t135 -24.5q55 0 94 7.5t70 21t61 30.5q17 10 30 3.5t19 -22.5q12 -30 -35 -54
q-43 -22 -99 -43t-140 -21q-101 0 -172 31.5t-115.5 84.5t-65.5 118.5t-21 133.5q0 117 41.5 210t115 159t170.5 100.5t209 34.5q114 0 192 -42.5t117.5 -114t39.5 -157.5q0 -61 -18 -121.5t-53 -110t-84.5 -79.5t-112.5 -30zM426 145q26 0 47.5 12.5t37.5 31t27 39t15 35.5
q21 62 15.5 96t-27.5 47.5t-51 13.5q-30 0 -54.5 -19t-42 -49t-26.5 -64.5t-9 -65.5q0 -38 18.5 -57.5t49.5 -19.5z" />
    <glyph glyph-name="A" unicode="A" horiz-adv-x="639" 
d="M332 543l-216 -508q-7 -19 -21.5 -29.5t-31.5 -10.5q-27 0 -40 15t-13 37q0 9 3 19l249 598q8 20 24.5 31t35.5 9q18 0 33.5 -10.5t22.5 -29.5l246 -586q5 -13 5 -24q0 -27 -17.5 -43t-38.5 -16q-18 0 -32.5 11t-22.5 30l-215 501zM147 157l55 115h270l19 -115h-344z" />
    <glyph glyph-name="B" unicode="B" horiz-adv-x="655" 
d="M388 700q96 0 143 -45t47 -133q0 -47 -23 -82.5t-68 -55t-111 -19.5l4 45q31 0 71 -8.5t77.5 -30t62 -60t24.5 -98.5q0 -66 -21.5 -108t-56.5 -65t-75 -31.5t-77 -8.5h-249q-26 0 -43.5 17.5t-17.5 43.5v578q0 26 17.5 43.5t43.5 17.5h252zM370 582h-178l13 16v-181
l-12 9h180q29 0 52 19t23 55q0 43 -21.5 62.5t-56.5 19.5zM378 308h-182l9 8v-211l-10 10h190q46 0 73 24.5t27 73.5q0 45 -18 65t-43 25t-46 5z" />
    <glyph glyph-name="C" unicode="C" horiz-adv-x="627" 
d="M565 666q26 -13 30.5 -41t-14.5 -51q-13 -18 -33.5 -20t-41.5 8q-24 11 -50.5 17t-55.5 6q-54 0 -96.5 -17t-72.5 -48.5t-45.5 -74.5t-15.5 -95q0 -61 17.5 -106t48.5 -75t73 -44.5t91 -14.5q27 0 54 5t52 18q21 10 41.5 7t34.5 -21q20 -25 14.5 -51.5t-30.5 -38.5
q-26 -13 -53.5 -21.5t-55.5 -13t-57 -4.5q-72 0 -136.5 23t-115 68t-79.5 112.5t-29 156.5q0 77 26.5 142t75 112.5t114.5 74t144 26.5q44 0 86 -10t79 -29z" />
    <glyph glyph-name="D" unicode="D" horiz-adv-x="715" 
d="M375 700q72 0 128 -27t94.5 -75.5t58 -112t19.5 -135.5q0 -97 -35 -176.5t-101.5 -126.5t-163.5 -47h-239q-26 0 -43.5 17.5t-17.5 43.5v578q0 26 17.5 43.5t43.5 17.5h239zM365 115q63 0 103 32.5t58.5 86t18.5 116.5q0 47 -10.5 89.5t-32.5 75t-56 51.5t-81 19h-175
l10 9v-490l-6 11h171z" />
    <glyph glyph-name="E" unicode="E" horiz-adv-x="572" 
d="M136 700h335q26 0 43.5 -16.5t17.5 -42.5q0 -25 -17.5 -40.5t-43.5 -15.5h-280l9 17v-195l-8 8h234q26 0 43.5 -16.5t17.5 -42.5q0 -25 -17.5 -40.5t-43.5 -15.5h-231l5 8v-202l-8 9h279q26 0 43.5 -17.5t17.5 -40.5q0 -25 -17.5 -41t-43.5 -16h-335q-26 0 -43.5 17.5
t-17.5 43.5v578q0 26 17.5 43.5t43.5 17.5z" />
    <glyph glyph-name="F" unicode="F" horiz-adv-x="562" 
d="M138 0q-28 0 -45.5 17.5t-17.5 43.5v578q0 26 17.5 43.5t43.5 17.5h325q26 0 43.5 -16.5t17.5 -42.5q0 -22 -17.5 -39t-43.5 -17h-270l9 12v-201l-7 13h223q26 0 43.5 -16.5t17.5 -42.5q0 -22 -17.5 -39t-43.5 -17h-225l9 9v-242q0 -26 -18.5 -43.5t-43.5 -17.5z" />
    <glyph glyph-name="G" unicode="G" horiz-adv-x="696" 
d="M405 -10q-76 0 -142 28t-116 77.5t-78.5 114.5t-28.5 140t28.5 140t78.5 114.5t116 77.5t142 28q47 0 91 -10t81 -30q15 -8 22.5 -21.5t7.5 -27.5q0 -24 -16 -43t-41 -19q-8 0 -16.5 2t-16.5 6q-25 11 -53 17t-59 6q-65 0 -118.5 -32.5t-85 -87t-31.5 -120.5
q0 -65 31.5 -120t85 -87.5t118.5 -32.5q30 0 66 6t59 16l-9 -30v171l17 -15h-111q-26 0 -43.5 17t-17.5 43t17.5 43t43.5 17h164q26 0 43 -17.5t17 -43.5v-212q0 -20 -9.5 -33t-21.5 -21q-46 -28 -100.5 -44.5t-114.5 -16.5z" />
    <glyph glyph-name="H" unicode="H" horiz-adv-x="719" 
d="M139 700q24 0 42.5 -17.5t18.5 -43.5v-578q0 -26 -19 -43.5t-44 -17.5q-28 0 -45 17.5t-17 43.5v578q0 26 18 43.5t46 17.5zM582 700q28 0 45 -17.5t17 -43.5v-578q0 -26 -17.5 -43.5t-46.5 -17.5q-24 0 -42.5 17.5t-18.5 43.5v578q0 26 19 43.5t44 17.5zM136 409h446
v-115h-446v115z" />
    <glyph glyph-name="I" unicode="I" horiz-adv-x="275" 
d="M200 61q0 -26 -19 -43.5t-44 -17.5q-28 0 -45 17.5t-17 43.5v578q0 26 18 43.5t46 17.5q24 0 42.5 -17.5t18.5 -43.5v-578z" />
    <glyph glyph-name="J" unicode="J" horiz-adv-x="552" 
d="M238 -10q-57 0 -106 23t-80 66q-12 18 -12 35q0 25 19.5 42t38.5 17q15 0 29.5 -9t26.5 -21q20 -18 39.5 -25.5t44.5 -7.5q30 0 56 15t42 40t16 54v420q0 26 19 43.5t44 17.5q28 0 45 -17.5t17 -43.5v-420q0 -61 -32 -113t-86 -84t-121 -32z" />
    <glyph glyph-name="K" unicode="K" horiz-adv-x="655" 
d="M557 0q-28 0 -45 23l-231 304l91 93l239 -316q14 -19 14 -41q0 -28 -21 -45.5t-47 -17.5zM569 705q24 0 39.5 -19.5t15.5 -39.5q0 -21 -18 -39l-419 -401l-5 143l338 333q23 23 49 23zM137 0q-28 0 -45 17.5t-17 43.5v578q0 26 18 43.5t46 17.5t44.5 -17.5t16.5 -43.5
v-578q0 -26 -17 -43.5t-46 -17.5z" />
    <glyph glyph-name="L" unicode="L" horiz-adv-x="562" 
d="M461 117q26 0 43.5 -16.5t17.5 -42.5q0 -25 -17.5 -41.5t-43.5 -16.5h-325q-26 0 -43.5 17.5t-17.5 43.5v578q0 26 18 43.5t46 17.5q24 0 42.5 -17.5t18.5 -43.5v-539l-22 17h283z" />
    <glyph glyph-name="M" unicode="M" horiz-adv-x="819" 
d="M138 701q14 0 29.5 -7.5t23.5 -19.5l243 -374l-50 2l249 372q19 27 49 27q24 0 43 -17t19 -44v-579q0 -26 -17 -43.5t-45 -17.5t-45.5 17.5t-17.5 43.5v471l39 -9l-204 -311q-9 -11 -22.5 -19t-27.5 -7q-13 -1 -26.5 7t-22.5 19l-191 302l26 53v-506q0 -26 -16 -43.5
t-42 -17.5q-25 0 -41 17.5t-16 43.5v579q0 25 18.5 43t44.5 18z" />
    <glyph glyph-name="N" unicode="N" horiz-adv-x="735" 
d="M606 700q24 0 39 -16t15 -40v-583q0 -26 -17.5 -43.5t-43.5 -17.5q-13 0 -26.5 4.5t-20.5 12.5l-393 499l26 16v-476q0 -24 -15.5 -40t-40.5 -16q-24 0 -39 16t-15 40v583q0 26 17.5 43.5t43.5 17.5q14 0 29 -5.5t22 -16.5l381 -486l-17 -12v464q0 24 15 40t40 16z" />
    <glyph glyph-name="O" unicode="O" horiz-adv-x="759" 
d="M719 350q0 -75 -25 -140t-70.5 -114.5t-108 -77.5t-136.5 -28t-136 28t-107.5 77.5t-70.5 114.5t-25 140t25 140t70.5 114.5t107.5 77.5t136 28t136.5 -28t108 -77.5t70.5 -114.5t25 -140zM589 350q0 67 -27 121.5t-74 86.5t-109 32t-109 -32t-73.5 -86t-26.5 -122
q0 -67 26.5 -121.5t73.5 -86.5t109 -32t109 32t74 86.5t27 121.5z" />
    <glyph glyph-name="P" unicode="P" horiz-adv-x="603" 
d="M364 700q52 0 97.5 -30t73.5 -81t28 -114q0 -62 -28 -113t-73.5 -81.5t-97.5 -30.5h-184l10 18v-207q0 -26 -16 -43.5t-42 -17.5q-25 0 -41 17.5t-16 43.5v578q0 26 17.5 43.5t43.5 17.5h228zM364 364q19 0 37 16t30 41.5t12 53.5q0 29 -12 54t-30 40.5t-37 15.5h-186
l12 18v-255l-11 16h185z" />
    <glyph glyph-name="Q" unicode="Q" horiz-adv-x="755" 
d="M723 -28q21 0 39 -17.5t18 -40.5t-20.5 -43.5t-52.5 -36.5t-66.5 -25t-62.5 -9q-62 0 -99 11.5t-61 26t-45 26t-51 11.5q-19 0 -30.5 -6.5t-25 -13t-37.5 -6.5q-25 0 -42 19t-17 41q0 39 35 52l207 77l90 -22l-194 -72l57 33q35 0 61.5 -10.5t50.5 -23.5t49.5 -23.5
t58.5 -10.5q27 0 45.5 9t32.5 20q17 13 30.5 23.5t29.5 10.5zM719 350q0 -75 -25 -140t-70.5 -114.5t-108 -77.5t-136.5 -28t-136 28t-107.5 77.5t-70.5 114.5t-25 140t25 140t70.5 114.5t107.5 77.5t136 28t136.5 -28t108 -77.5t70.5 -114.5t25 -140zM589 350
q0 67 -27 121.5t-74 86.5t-109 32t-109 -32t-73.5 -86t-26.5 -122q0 -67 26.5 -121.5t73.5 -86.5t109 -32t109 32t74 86.5t27 121.5z" />
    <glyph glyph-name="R" unicode="R" horiz-adv-x="687" 
d="M147 0q-28 0 -50 17.5t-22 43.5v578q0 26 17.5 43.5t43.5 17.5h288q52 0 97.5 -27.5t73.5 -76t28 -111.5q0 -38 -15.5 -74t-42 -65t-59.5 -45l1 23q28 -15 46.5 -35.5t29 -44t12.5 -50.5q4 -25 5.5 -44t6 -32t17.5 -20q22 -13 27.5 -37.5t-11.5 -43.5q-11 -13 -28 -16.5
t-34 0t-28 9.5q-17 10 -34 29.5t-27.5 52.5t-10.5 85q0 17 -6 31.5t-17 25t-28 16t-40 5.5h-202l15 23v-217q0 -26 -14 -43.5t-39 -17.5zM186 358h233q18 0 35 16.5t28 45t11 62.5q0 44 -23.5 73.5t-50.5 29.5h-231l12 32v-283z" />
    <glyph glyph-name="S" unicode="S" horiz-adv-x="597" 
d="M300 -10q-70 0 -126 17.5t-107 61.5q-13 11 -20 25t-7 28q0 23 16.5 40.5t41.5 17.5q19 0 34 -12q38 -31 75.5 -47t92.5 -16q37 0 68 11.5t50 31t19 44.5q0 30 -18 51t-55 35.5t-94 22.5q-54 8 -95 24.5t-68.5 42t-41.5 60t-14 77.5q0 65 33.5 111t90.5 70t126 24
q65 0 120.5 -19.5t90.5 -49.5q29 -23 29 -53q0 -22 -17 -40t-40 -18q-15 0 -27 9q-16 14 -43 26.5t-57 21t-56 8.5q-43 0 -72.5 -11t-44.5 -30t-15 -44q0 -30 17.5 -49.5t50.5 -31t79 -20.5q60 -11 105.5 -26t75.5 -38.5t45 -59t15 -86.5q0 -65 -36 -112t-94.5 -72
t-126.5 -25z" />
    <glyph glyph-name="T" unicode="T" horiz-adv-x="626" 
d="M312 0q-28 0 -46 17.5t-18 43.5v580h130v-580q0 -26 -18.5 -43.5t-47.5 -17.5zM91 585q-26 0 -43.5 16t-17.5 42t17.5 41.5t43.5 15.5h444q26 0 43.5 -16t17.5 -42t-17.5 -41.5t-43.5 -15.5h-444z" />
    <glyph glyph-name="U" unicode="U" horiz-adv-x="705" 
d="M572 701q26 0 42 -17.5t16 -43.5v-362q0 -83 -35.5 -147t-97.5 -100t-144 -36t-144.5 36t-98 100t-35.5 147v362q0 26 18 43.5t46 17.5q23 0 41.5 -17.5t18.5 -43.5v-362q0 -50 21.5 -86.5t57 -56.5t75.5 -20q43 0 80 20t60 56.5t23 86.5v362q0 26 15 43.5t41 17.5z" />
    <glyph glyph-name="V" unicode="V" horiz-adv-x="678" 
d="M586 702q25 0 43.5 -16.5t18.5 -41.5q0 -13 -6 -27l-247 -578q-9 -20 -25.5 -29.5t-33.5 -9.5q-16 1 -31 10.5t-23 27.5l-247 580q-3 6 -4 12.5t-1 12.5q0 29 21 44.5t40 15.5q38 0 55 -39l219 -515l-35 -1l201 516q17 38 55 38z" />
    <glyph glyph-name="W" unicode="W" horiz-adv-x="943" 
d="M862 703q23 0 44 -17.5t21 -47.5q0 -9 -3 -20l-197 -580q-6 -18 -21.5 -27.5t-32.5 -10.5q-17 0 -33.5 10t-25.5 29l-148 336l9 -6l-146 -330q-9 -19 -25.5 -29t-33.5 -10q-16 1 -32 10.5t-22 27.5l-197 580q-3 11 -3 20q0 30 21.5 47.5t44.5 17.5q19 0 35.5 -10
t22.5 -29l159 -482l-22 1l142 341q8 18 23 28.5t34 9.5q19 1 34 -9.5t22 -28.5l130 -326l-16 -10l157 476q6 19 23 29t36 10z" />
    <glyph glyph-name="X" unicode="X" horiz-adv-x="655" 
d="M554 701q23 0 39.5 -18t16.5 -38q0 -19 -13 -36l-201 -265l-68 93l177 235q21 29 49 29zM108 703q29 0 49 -26l440 -585q12 -16 12 -37q0 -28 -20 -44t-40 -16q-29 0 -49 26l-440 585q-13 16 -13 36q0 26 19.5 43.5t41.5 17.5zM99 -5q-22 0 -38 16.5t-16 36.5q0 22 15 41
l203 275l66 -97l-180 -244q-20 -28 -50 -28z" />
    <glyph glyph-name="Y" unicode="Y" horiz-adv-x="596" 
d="M521 703q23 0 41.5 -17.5t18.5 -44.5q0 -9 -2.5 -18.5t-8.5 -18.5l-227 -325l18 69v-287q0 -26 -17.5 -43.5t-40.5 -17.5q-25 0 -42.5 17.5t-17.5 43.5v279l8 -32l-216 287q-10 13 -14 25t-4 22q0 27 21 44t43 17q28 0 49 -28l192 -265l-28 4l177 259q21 30 50 30z" />
    <glyph glyph-name="Z" unicode="Z" horiz-adv-x="648" 
d="M548 700q22 0 43.5 -16t21.5 -43q0 -19 -14 -38l-383 -492l-12 4h334q26 0 43.5 -15.5t17.5 -41.5q0 -25 -17.5 -41.5t-43.5 -16.5h-439q-26 0 -45 18.5t-19 40.5q0 19 14 38l384 494l9 -6h-303q-26 0 -43.5 16t-17.5 42t17.5 41.5t43.5 15.5h409z" />
    <glyph glyph-name="bracketleft" unicode="[" horiz-adv-x="407" 
d="M128 -190q-21 0 -34.5 13.5t-13.5 34.5v794q0 21 13.5 34.5t34.5 13.5h211q21 0 34.5 -13.5t13.5 -34.5q0 -20 -13.5 -33.5t-34.5 -13.5h-149l5 8v-720l-12 12h156q21 0 34.5 -13.5t13.5 -34.5q0 -20 -13.5 -33.5t-34.5 -13.5h-211z" />
    <glyph glyph-name="backslash" unicode="\" horiz-adv-x="568" 
d="M484 -134q-13 0 -25 8t-19 22l-405 831q-3 6 -4.5 12t-1.5 12q0 23 17.5 36.5t34.5 13.5q14 0 25.5 -8t18.5 -22l406 -831q6 -12 6 -24q0 -24 -19 -37t-34 -13z" />
    <glyph glyph-name="bracketright" unicode="]" horiz-adv-x="407" 
d="M279 700q21 0 34.5 -13.5t13.5 -34.5v-794q0 -21 -13.5 -34.5t-34.5 -13.5h-211q-21 0 -34.5 13.5t-13.5 34.5q0 20 13.5 33.5t34.5 13.5h149l-5 -8v720l12 -12h-156q-21 0 -34.5 13.5t-13.5 34.5q0 20 13.5 33.5t34.5 13.5h211z" />
    <glyph glyph-name="asciicircum" unicode="^" horiz-adv-x="618" 
d="M113 319q-25 0 -44 18.5t-19 44.5q0 12 6.5 23t13.5 23l157 257q12 20 33 24.5t48 4.5q32 0 52 -5.5t31 -23.5l158 -258q7 -11 13.5 -22t6.5 -23q0 -25 -19 -44t-45 -19q-12 0 -25 4t-20 15l-161 261l24 4l-165 -265q-7 -11 -20 -15t-25 -4z" />
    <glyph glyph-name="underscore" unicode="_" horiz-adv-x="704" 
d="M98 -160q-21 0 -34.5 13.5t-13.5 33.5t13.5 33.5t34.5 13.5h508q21 0 34.5 -13.5t13.5 -34.5q0 -20 -13.5 -33t-34.5 -13h-508z" />
    <glyph glyph-name="grave" unicode="`" horiz-adv-x="259" 
d="M173 570q-5 0 -11 1.5t-12 4.5l-100 53q-18 10 -27.5 24t-9.5 29q0 23 18 36t35 13q14 0 26.5 -6.5t22.5 -15.5l86 -76q14 -13 14 -27q0 -16 -11.5 -26t-30.5 -10z" />
    <glyph glyph-name="a" unicode="a" horiz-adv-x="628" 
d="M503 545q26 0 43 -17t17 -44v-423q0 -26 -17 -43.5t-43 -17.5t-43 17.5t-17 43.5v49l22 -9q0 -13 -14 -31.5t-38 -36.5t-56.5 -30.5t-70.5 -12.5q-69 0 -125 35.5t-88.5 98t-32.5 143.5q0 82 32.5 144.5t87.5 98t122 35.5q43 0 79 -13t62.5 -33t41 -40.5t14.5 -34.5
l-36 -13v73q0 26 17 43.5t43 17.5zM301 100q44 0 77 22t51.5 60t18.5 85q0 48 -18.5 86t-51.5 60t-77 22q-43 0 -76 -22t-51.5 -60t-18.5 -86q0 -47 18.5 -85t51.5 -60t76 -22z" />
    <glyph glyph-name="b" unicode="b" horiz-adv-x="628" 
d="M342 545q70 0 125.5 -35.5t88 -97.5t32.5 -144t-32.5 -144.5t-87 -98t-122.5 -35.5q-40 0 -75 13t-61.5 33t-41 40.5t-14.5 34.5l31 13v-73q0 -26 -17 -43.5t-43 -17.5t-43 17t-17 44v628q0 26 17 43.5t43 17.5t43 -17.5t17 -43.5v-254l-17 9q0 13 14 31.5t38 37
t55.5 30.5t66.5 12zM327 435q-44 0 -77 -22t-51.5 -59.5t-18.5 -85.5q0 -47 18.5 -85.5t51.5 -60.5t77 -22t76.5 22t51 60.5t18.5 85.5q0 48 -18.5 85.5t-51 59.5t-76.5 22z" />
    <glyph glyph-name="c" unicode="c" horiz-adv-x="520" 
d="M303 545q57 0 99.5 -12t66 -33.5t23.5 -51.5q0 -20 -12 -37.5t-35 -17.5q-16 0 -26.5 4.5t-18.5 11.5t-19 13q-10 6 -30.5 9.5t-30.5 3.5q-51 0 -86.5 -22t-54.5 -59.5t-19 -86.5q0 -48 19.5 -85.5t54 -59.5t79.5 -22q25 0 43 3t30 9q14 8 25 17t33 9q26 0 40 -16.5
t14 -40.5q0 -25 -28 -45.5t-73.5 -33t-98.5 -12.5q-79 0 -137 36.5t-89.5 99.5t-31.5 141q0 82 33.5 144.5t93 98t136.5 35.5z" />
    <glyph glyph-name="d" unicode="d" horiz-adv-x="628" 
d="M503 740q26 0 43 -17t17 -44v-618q0 -26 -17 -43.5t-43 -17.5t-43 17.5t-17 43.5v49l22 -9q0 -13 -14 -31.5t-38 -36.5t-56.5 -30.5t-70.5 -12.5q-69 0 -125 35.5t-88.5 98t-32.5 143.5q0 82 32.5 144.5t87.5 98t122 35.5q43 0 79 -13t62.5 -33t41 -40.5t14.5 -34.5
l-36 -13v268q0 26 17 43.5t43 17.5zM301 100q44 0 77 22t51.5 60t18.5 85q0 48 -18.5 86t-51.5 60t-77 22q-43 0 -76 -22t-51.5 -60t-18.5 -86q0 -47 18.5 -85t51.5 -60t76 -22z" />
    <glyph glyph-name="e" unicode="e" horiz-adv-x="590" 
d="M317 -10q-85 0 -147.5 35.5t-96 96.5t-33.5 138q0 90 36.5 153.5t95.5 97.5t125 34q51 0 96.5 -21t80.5 -57.5t55.5 -84.5t20.5 -102q-1 -24 -19 -39t-42 -15h-382l-30 100h367l-22 -20v27q-2 29 -20.5 52t-46 36.5t-58.5 13.5q-30 0 -56 -8t-45 -27t-30 -51t-11 -81
q0 -54 22.5 -91.5t58 -57t75.5 -19.5q37 0 59 6t35.5 14.5t24.5 14.5q18 9 34 9q22 0 36.5 -15t14.5 -35q0 -27 -28 -49q-26 -22 -73 -38.5t-97 -16.5z" />
    <glyph glyph-name="f" unicode="f" horiz-adv-x="437" 
d="M340 740q22 0 43 -6t35 -19.5t14 -35.5q0 -25 -14.5 -39.5t-33.5 -14.5q-9 0 -27 4.5t-35 4.5q-25 0 -38.5 -11t-18.5 -25.5t-5 -25.5v-511q0 -26 -17 -43.5t-43 -17.5t-43 17.5t-17 43.5v510q0 71 50 120t150 49zM351 525q24 0 40 -15.5t16 -39.5t-16 -39.5t-40 -15.5
h-265q-24 0 -40 15.5t-16 39.5t16 39.5t40 15.5h265z" />
    <glyph glyph-name="g" unicode="g" horiz-adv-x="638" 
d="M287 545q42 0 77 -13t60.5 -33t40 -40.5t14.5 -34.5l-26 -13v73q0 26 17 43.5t43 17.5t43 -17t17 -44v-445q0 -87 -37.5 -139.5t-98.5 -76t-131 -23.5q-20 0 -52 5t-61 12t-44 13q-30 13 -41.5 32.5t-4.5 41.5q9 29 29 39.5t42 2.5q10 -3 33 -12t50.5 -16.5t48.5 -7.5
q75 0 111 30t36 83v87l12 -9q0 -13 -13.5 -31.5t-37 -36.5t-55.5 -30.5t-68 -12.5q-71 0 -128 35.5t-90 98t-33 143.5q0 82 33 144.5t89 98t125 35.5zM306 435q-45 0 -79 -22t-53 -60t-19 -86q0 -47 19 -85t53 -60t79 -22q46 0 80 22t53 60t19 85q0 48 -19 86t-53 60t-80 22
z" />
    <glyph glyph-name="h" unicode="h" horiz-adv-x="586" 
d="M346 545q72 0 109.5 -31t51.5 -82.5t14 -114.5v-256q0 -26 -17 -43.5t-43 -17.5t-43 17.5t-17 43.5v256q0 33 -8 59.5t-29 42.5t-60 16q-38 0 -65 -16t-40.5 -42.5t-13.5 -59.5v-256q0 -26 -17 -43.5t-43 -17.5t-43 17.5t-17 43.5v618q0 26 17 43.5t43 17.5t43 -17.5
t17 -43.5v-248l-15 3q9 17 25 36.5t39 36.5t51 27.5t61 10.5z" />
    <glyph glyph-name="i" unicode="i" horiz-adv-x="236" 
d="M178 61q0 -26 -17 -43.5t-43 -17.5t-43 17.5t-17 43.5v413q0 26 17 43.5t43 17.5t43 -17.5t17 -43.5v-413zM117 600q-34 0 -48 11t-14 39v19q0 29 15.5 39.5t47.5 10.5q35 0 49 -11t14 -39v-19q0 -29 -15 -39.5t-49 -10.5z" />
    <glyph glyph-name="j" unicode="j" horiz-adv-x="275" 
d="M200 -10q0 -57 -22 -98.5t-59 -64.5t-83 -23q-25 0 -40.5 16.5t-15.5 39.5v11q0 22 14.5 35t36.5 20q24 8 34 22.5t12.5 34.5t2.5 42v449q0 26 17 43.5t43 17.5t43 -17.5t17 -43.5v-484zM138 600q-34 0 -48 11t-14 39v19q0 29 15.5 39.5t47.5 10.5q35 0 49 -11t14 -39
v-19q0 -29 -15 -39.5t-49 -10.5z" />
    <glyph glyph-name="k" unicode="k" horiz-adv-x="569" 
d="M135 0q-26 0 -43 17.5t-17 43.5v618q0 26 17 43.5t43 17.5t43 -17.5t17 -43.5v-618q0 -26 -17 -43.5t-43 -17.5zM453 535q23 0 40 -19t17 -37q0 -24 -24 -45l-301 -277l-5 138l229 221q19 19 44 19zM468 1q-26 0 -44 20l-185 196l91 84l180 -196q19 -20 19 -45
q0 -26 -20.5 -42.5t-40.5 -16.5z" />
    <glyph glyph-name="l" unicode="l" horiz-adv-x="270" 
d="M195 61q0 -26 -17.5 -43.5t-43.5 -17.5q-25 0 -42 17.5t-17 43.5v618q0 26 17.5 43.5t43.5 17.5t42.5 -17.5t16.5 -43.5v-618z" />
    <glyph glyph-name="m" unicode="m" horiz-adv-x="922" 
d="M346 545q80 0 118 -38.5t50 -99.5l-17 9l8 16q12 23 37 49.5t60.5 45t79.5 18.5q72 0 109.5 -31t51.5 -82.5t14 -114.5v-256q0 -26 -17 -43.5t-43 -17.5t-43 17.5t-17 43.5v256q0 33 -8 59.5t-29 42.5t-60 16q-38 0 -65 -16t-40.5 -42.5t-13.5 -59.5v-256
q0 -26 -17 -43.5t-43 -17.5t-43 17.5t-17 43.5v256q0 33 -8 59.5t-29 42.5t-60 16q-38 0 -65 -16t-40.5 -42.5t-13.5 -59.5v-256q0 -26 -17 -43.5t-43 -17.5t-43 17.5t-17 43.5v413q0 26 17 43.5t43 17.5t43 -17.5t17 -43.5v-43l-15 3q9 17 25 36.5t39 36.5t51 27.5t61 10.5
z" />
    <glyph glyph-name="n" unicode="n" horiz-adv-x="596" 
d="M351 545q74 0 112.5 -31t53 -82.5t14.5 -114.5v-256q0 -26 -17 -43.5t-43 -17.5t-43 17.5t-17 43.5v256q0 33 -8.5 59.5t-30.5 42.5t-63 16q-40 0 -67.5 -16t-42 -42.5t-14.5 -59.5v-256q0 -26 -17 -43.5t-43 -17.5t-43 17.5t-17 43.5v413q0 26 17 43.5t43 17.5t43 -17.5
t17 -43.5v-43l-15 3q9 17 26 36.5t40 36.5t52 27.5t63 10.5z" />
    <glyph glyph-name="o" unicode="o" horiz-adv-x="624" 
d="M584 267q0 -82 -36.5 -144.5t-98 -97.5t-137.5 -35t-137.5 35t-98 97.5t-36.5 144.5t36.5 144.5t98 98t137.5 35.5t137.5 -35.5t98 -98t36.5 -144.5zM464 267q0 51 -20.5 88.5t-55 58.5t-76.5 21t-76.5 -21t-55 -58.5t-20.5 -88.5q0 -50 20.5 -87.5t55 -58.5t76.5 -21
t76.5 21t55 58.5t20.5 87.5z" />
    <glyph glyph-name="p" unicode="p" horiz-adv-x="628" 
d="M342 545q70 0 125.5 -35.5t88 -97.5t32.5 -144t-32.5 -144.5t-87 -98t-122.5 -35.5q-40 0 -75 13t-61.5 33t-41 40.5t-14.5 34.5l31 13v-263q0 -26 -17 -43.5t-43 -17.5t-43 17t-17 44v613q0 26 17 43.5t43 17.5t43 -17.5t17 -43.5v-49l-17 9q0 13 14 31.5t38 37
t55.5 30.5t66.5 12zM327 435q-44 0 -77 -22t-51.5 -59.5t-18.5 -85.5q0 -47 18.5 -85.5t51.5 -60.5t77 -22t76.5 22t51 60.5t18.5 85.5q0 48 -18.5 85.5t-51 59.5t-76.5 22z" />
    <glyph glyph-name="q" unicode="q" horiz-adv-x="628" 
d="M503 535q26 0 43 -17t17 -44v-613q0 -26 -17 -43.5t-43 -17.5t-43 17.5t-17 43.5v249l22 -9q0 -13 -14 -31.5t-38 -36.5t-56.5 -30.5t-70.5 -12.5q-69 0 -125 35.5t-88.5 98t-32.5 143.5q0 82 32.5 144.5t87.5 98t122 35.5q43 0 79 -13t62.5 -33t41 -40.5t14.5 -34.5
l-36 -13v63q0 26 17 43.5t43 17.5zM301 100q44 0 77 22t51.5 60t18.5 85q0 48 -18.5 86t-51.5 60t-77 22q-43 0 -76 -22t-51.5 -60t-18.5 -86q0 -47 18.5 -85t51.5 -60t76 -22z" />
    <glyph glyph-name="r" unicode="r" horiz-adv-x="434" 
d="M125 0q-26 0 -43 17.5t-17 43.5v413q0 26 17 43.5t43 17.5t43 -17.5t17 -43.5v-94l-7 67q11 24 28.5 42.5t39.5 31t47 18.5t50 6q30 0 50.5 -17t20.5 -40q0 -33 -17 -47.5t-37 -14.5q-19 0 -34.5 7t-35.5 7q-18 0 -36.5 -8.5t-34 -26.5t-25 -44.5t-9.5 -62.5v-237
q0 -26 -17 -43.5t-43 -17.5z" />
    <glyph glyph-name="s" unicode="s" horiz-adv-x="482" 
d="M34 83q-10 14 -9 36t26 38q16 10 34 8.5t35 -18.5q29 -29 61 -45t80 -16q15 1 33 4.5t31.5 16t13.5 38.5q0 22 -15 35t-39.5 22t-54.5 17q-31 9 -63.5 20t-59.5 28.5t-44 46.5t-17 73q0 50 28 85t72.5 54t93.5 19q31 0 65 -7.5t65 -24t52 -43.5q11 -15 13 -36t-19 -38
q-15 -12 -35 -10.5t-33 13.5q-17 22 -45.5 35t-65.5 13q-15 0 -32.5 -3.5t-30.5 -15t-13 -36.5q0 -23 15 -36.5t40.5 -22t54.5 -16.5q30 -8 61 -19t57 -29t42 -46.5t16 -72.5q0 -51 -30 -87t-75 -54.5t-92 -18.5q-59 0 -118 20.5t-98 72.5z" />
    <glyph glyph-name="t" unicode="t" horiz-adv-x="409" 
d="M71 525h237q24 0 40 -16t16 -40q0 -23 -16 -38.5t-40 -15.5h-237q-24 0 -40 16t-16 40q0 23 16 38.5t40 15.5zM178 650q26 0 42.5 -17.5t16.5 -43.5v-445q0 -14 5.5 -23t15 -13t20.5 -4q12 0 22 4.5t23 4.5q14 0 25.5 -13t11.5 -36q0 -28 -30.5 -46t-65.5 -18
q-21 0 -46.5 3.5t-48 17t-37.5 41.5t-15 77v450q0 26 17.5 43.5t43.5 17.5z" />
    <glyph glyph-name="u" unicode="u" horiz-adv-x="587" 
d="M462 535q26 0 43 -17.5t17 -43.5v-254q0 -106 -59 -168t-170 -62t-169.5 62t-58.5 168v254q0 26 17 43.5t43 17.5t43 -17.5t17 -43.5v-254q0 -61 27 -90.5t81 -29.5q55 0 82 29.5t27 90.5v254q0 26 17 43.5t43 17.5z" />
    <glyph glyph-name="v" unicode="v" horiz-adv-x="562" 
d="M89 535q19 0 35 -9.5t24 -28.5l147 -336l-22 -10l150 345q17 40 53 38q25 0 40.5 -15.5t15.5 -38.5q0 -7 -2.5 -15t-5.5 -15l-187 -412q-16 -36 -51 -38q-19 -3 -36.5 7t-26.5 31l-186 412q-2 5 -4.5 13t-2.5 19q0 18 16 35.5t43 17.5z" />
    <glyph glyph-name="w" unicode="w" horiz-adv-x="768" 
d="M681 535q23 0 40 -17.5t17 -44.5q0 -7 -1 -12.5t-3 -10.5l-153 -412q-7 -20 -25 -30.5t-38 -7.5q-34 2 -51 38l-99 285l26 -1l-93 -284q-17 -36 -51 -38q-19 -3 -37.5 7.5t-25.5 30.5l-153 412q-4 11 -4 23q0 24 16 43t44 19q19 0 34 -9t21 -29l121 -328l-25 2l91 247
q16 37 55 37q22 0 33.5 -9.5t18.5 -27.5l91 -247l-30 -4l123 330q12 38 58 38z" />
    <glyph glyph-name="x" unicode="x" horiz-adv-x="487" 
d="M76 535q29 0 49 -25l334 -415q13 -16 13 -36q0 -25 -19 -43t-42 -18q-29 0 -49 26l-334 415q-13 16 -13 36q0 26 18.5 43t42.5 17zM77 -1q-20 0 -39.5 15.5t-19.5 37.5q0 20 15 38l153 187l60 -100l-121 -153q-19 -25 -48 -25zM410 535q24 0 40.5 -16.5t16.5 -37.5
q0 -10 -3 -20t-11 -19l-151 -184l-63 87l123 163q20 27 48 27z" />
    <glyph glyph-name="y" unicode="y" horiz-adv-x="587" 
d="M462 535q26 0 43 -17.5t17 -43.5v-425q0 -92 -34.5 -146.5t-92.5 -78.5t-130 -24q-32 0 -68 5t-59 15q-30 13 -41.5 32.5t-4.5 41.5q9 29 29 39.5t42 2.5q16 -5 42 -15.5t60 -10.5q46 0 76.5 12.5t46 42t15.5 80.5v67l21 -24q-17 -33 -42.5 -54.5t-60.5 -32.5t-80 -11
q-53 0 -92.5 24.5t-61.5 68t-22 99.5v292q0 26 17 43.5t43 17.5t43 -17.5t17 -43.5v-256q0 -65 28.5 -91.5t79.5 -26.5q35 0 59 13.5t37 40t13 64.5v256q0 26 17 43.5t43 17.5z" />
    <glyph glyph-name="z" unicode="z" horiz-adv-x="484" 
d="M406 110q24 0 40 -15.5t16 -39.5q0 -23 -16 -39t-40 -16h-322q-25 0 -40 18t-14 36q1 15 4 26.5t15 26.5l249 322l-2 -14h-203q-24 0 -40 16t-16 40q0 23 16 38.5t40 15.5h308q23 0 39 -17t14 -43q-1 -10 -3.5 -20t-13.5 -24l-245 -317v6h214z" />
    <glyph glyph-name="braceleft" unicode="{" horiz-adv-x="401" 
d="M345 -202h-7.5t-7.5 1q-73 15 -112.5 41.5t-55 64.5t-15.5 85l2 102q0 38 -11.5 62t-31.5 35.5t-46 12.5h-4q-19 0 -32.5 13t-13.5 33t13.5 33t32.5 13h6q25 2 44.5 13.5t31 35.5t11.5 61l-2 102q0 35 8.5 65.5t28.5 54.5t55.5 42t90.5 29q28 5 42 -9.5t14 -34.5
q0 -13 -9.5 -24t-24.5 -16q-40 -14 -60 -30.5t-26.5 -39t-6.5 -54.5l2 -104q0 -58 -29 -90.5t-79 -48.5v4q50 -16 79 -48.5t29 -90.5l-2 -104q0 -31 6.5 -53t26.5 -38.5t60 -32.5q34 -13 34 -42q0 -17 -12 -30t-29 -13z" />
    <glyph glyph-name="bar" unicode="|" horiz-adv-x="248" 
d="M184 -64q0 -26 -17.5 -43.5t-43.5 -17.5q-25 0 -42 17.5t-17 43.5v804q0 26 17.5 43.5t43.5 17.5t42.5 -17.5t16.5 -43.5v-804z" />
    <glyph glyph-name="braceright" unicode="}" horiz-adv-x="401" 
d="M54 -201q-19 0 -29 16.5t-10 29.5q0 14 9.5 24.5t24.5 15.5q41 14 60.5 30.5t26 39.5t6.5 54l-2 104q0 59 29.5 91t78.5 48v-4q-49 17 -78.5 49t-29.5 90l2 104q0 32 -6.5 53.5t-26.5 38.5t-60 32q-34 13 -34 42q0 17 12 30t29 13h7.5t7.5 -1q73 -14 112.5 -41t55 -65
t15.5 -85l-2 -102q0 -38 11.5 -62t32 -35.5t45.5 -12.5h4q19 0 32.5 -13t13.5 -33t-13.5 -33t-32.5 -13h-6q-25 -1 -44.5 -13t-31 -35.5t-11.5 -61.5l2 -102q0 -35 -8 -65.5t-28.5 -54.5t-56 -42t-90.5 -29q-4 -1 -7.5 -1.5t-9.5 -0.5z" />
    <glyph glyph-name="asciitilde" unicode="~" horiz-adv-x="540" 
d="M376 235q-21 0 -51.5 9.5t-63.5 21.5t-60 21.5t-41 9.5q-10 0 -16.5 -5.5t-3.5 -15.5q7 -22 -5 -35.5t-30 -13.5q-22 0 -38.5 22t-16.5 59q0 35 13.5 56.5t40.5 31.5t69 10q21 0 50.5 -9.5t60.5 -21.5t57 -21.5t39 -9.5q11 0 17 5.5t3 15.5q-7 23 5 36t30 13q23 0 39 -19
t16 -50q0 -55 -25.5 -82.5t-88.5 -27.5z" />
    <glyph glyph-name="uni00A0" unicode="&#xa0;" horiz-adv-x="280" 
 />
    <glyph glyph-name="exclamdown" unicode="&#xa1;" horiz-adv-x="267" 
d="M133 320q34 0 37 -38l29 -368q2 -31 -16.5 -52t-48.5 -21t-49 21t-16 52l28 368q3 38 36 38zM140 541q29 0 44.5 -15.5t15.5 -44.5v-17q0 -29 -15.5 -44.5t-44.5 -15.5h-13q-29 0 -44.5 15.5t-15.5 44.5v17q0 29 15.5 44.5t44.5 15.5h13z" />
    <glyph glyph-name="cent" unicode="&#xa2;" horiz-adv-x="515" 
d="M348 61q0 -26 -17.5 -43.5t-43.5 -17.5q-25 0 -42 17.5t-17 43.5v52l10 44v400l-10 55v47q0 26 17.5 43.5t43.5 17.5t42.5 -17.5t16.5 -43.5v-50l-10 -41v-411l10 -44v-52zM293 80q-79 0 -137 36.5t-89.5 99.5t-31.5 141q0 82 33.5 144.5t93 98t136.5 35.5q57 0 99.5 -12
t66 -33.5t23.5 -51.5q0 -20 -13 -38.5t-41 -18.5q-13 0 -22.5 3.5t-17.5 10.5t-17 17q-16 18 -35.5 21t-48.5 3q-39 0 -70 -22t-49 -62t-18 -95q0 -54 19 -94.5t52 -63.5t73 -23q32 0 50.5 6t31.5 20q11 11 23.5 20t34.5 9q26 0 40 -18t14 -42q0 -25 -28 -45.5t-73.5 -33
t-98.5 -12.5z" />
    <glyph glyph-name="sterling" unicode="&#xa3;" horiz-adv-x="624" 
d="M82 318q-23 0 -38.5 15.5t-15.5 38.5q0 22 15.5 36t38.5 14h288q23 0 38.5 -15.5t15.5 -38.5q0 -22 -15.5 -36t-38.5 -14h-288zM204 137q41 0 81 -12.5t78.5 -25t73.5 -12.5q17 0 40 8t37 15q9 5 20.5 8.5t20.5 3.5q24 0 36.5 -16t12.5 -38q0 -26 -19 -44.5t-60 -32.5
q-19 -7 -44 -9.5t-45 -1.5q-24 1 -59 8.5t-72 17t-69 16.5t-50 7q-12 0 -26 -1t-26.5 -3t-22.5 -5q-17 -5 -27 -12.5t-27 -7.5q-18 0 -32 13.5t-14 36.5t14 40t39 27q20 8 45 12.5t50.5 6t44.5 1.5zM203 72l-94 23q13 8 23.5 25t17 41.5t6.5 55.5q0 40 -10 77.5t-22.5 72
t-22.5 66.5t-10 61q0 63 27.5 111.5t79 76.5t123.5 28q41 0 77 -9.5t64 -25.5q26 -15 41.5 -33t15.5 -38q0 -25 -18 -43t-42 -18q-13 0 -25 5t-19 12q-19 18 -41.5 27t-51.5 9q-35 0 -59 -15.5t-36 -39.5t-12 -50q0 -22 10 -52t22.5 -63.5t22.5 -66.5t10 -61
q0 -39 -12.5 -71.5t-30.5 -58.5t-34 -46z" />
    <glyph glyph-name="currency" unicode="&#xa4;" horiz-adv-x="579" 
d="M128 529q22 0 43 -21l69 -70l-29 -29l-29.5 -29.5l-29.5 -29.5l-68 69q-21 21 -21 43q0 14 10 29.5t25 26.5t30 11zM445 527q16 0 31 -9.5t25.5 -24.5t10.5 -30q0 -22 -21 -43l-71 -70q-14 15 -28.5 29.5l-29 29t-29.5 28.5l70 70q20 20 42 20zM446 78q-21 0 -43 22
l-68 67l29.5 29.5l29.5 29.5l29 29l67 -68q20 -20 20 -42q0 -14 -9.5 -30t-24.5 -26.5t-30 -10.5zM128 80q-14 0 -29.5 10t-26 24.5t-10.5 29.5q0 22 22 44l71 71q15 -14 29.5 -28.5l29 -29t28.5 -29.5l-71 -71q-21 -21 -43 -21zM289 113q-52 0 -95 25.5t-68.5 69
t-25.5 95.5q0 53 25.5 96t68.5 68.5t95 25.5q53 0 96 -25.5t68.5 -68.5t25.5 -96q0 -52 -25.5 -95.5t-68.5 -69t-96 -25.5zM290 224q23 0 38 10.5t23 28.5t8 40q0 23 -8 41t-23 28.5t-38 10.5q-22 0 -38 -10.5t-24 -28.5t-8 -41q0 -22 8 -40t24 -28.5t38 -10.5z" />
    <glyph glyph-name="yen" unicode="&#xa5;" horiz-adv-x="596" 
d="M164 114q-26 0 -43.5 15t-17.5 38t17.5 37.5t43.5 14.5h294q26 0 43.5 -14.5t17.5 -37.5t-17.5 -38t-43.5 -15h-294zM162 258q-26 0 -43.5 15t-17.5 38t17.5 37.5t43.5 14.5h294q26 0 43.5 -14.5t17.5 -37.5t-17.5 -38t-43.5 -15h-294zM521 703q23 0 41.5 -17.5
t18.5 -44.5q0 -9 -2.5 -18.5t-8.5 -18.5l-220 -325l18 69v-287q0 -26 -18 -43.5t-47 -17.5q-28 0 -46.5 17.5t-18.5 43.5v279l8 -32l-211 287q-10 13 -14 25t-4 22q0 18 11.5 32t28 21.5t30.5 7.5q30 0 49 -28l188 -290l-28 4l175 284q9 15 23 22.5t27 7.5z" />
    <glyph glyph-name="brokenbar" unicode="&#xa6;" horiz-adv-x="258" 
d="M189 467q0 -26 -17.5 -43.5t-43.5 -17.5q-25 0 -42 17.5t-17 43.5v273q0 26 17.5 43.5t43.5 17.5t42.5 -17.5t16.5 -43.5v-273zM189 -64q0 -26 -17.5 -43.5t-43.5 -17.5q-25 0 -42 17.5t-17 43.5v273q0 26 17.5 43.5t43.5 17.5t42.5 -17.5t16.5 -43.5v-273z" />
    <glyph glyph-name="section" unicode="&#xa7;" horiz-adv-x="559" 
d="M529 278q-6 -82 -63.5 -116t-164.5 -39l92 73q50 -31 76 -61.5t26 -85.5q0 -17 -8.5 -48t-30.5 -63.5t-64 -55t-110 -22.5q-40 0 -84.5 9t-83 26t-59.5 41q-13 14 -19.5 31t-5.5 38q2 22 18.5 36.5t39.5 14.5q8 0 21 -3.5t28 -20.5q14 -16 31 -30t44 -22.5t70 -8.5
q18 0 34.5 3t29.5 9.5t20 16.5t7 23q0 23 -23.5 38t-63.5 26t-88 22q-80 18 -119 60.5t-39 106.5q0 13 4.5 37.5t20 51t47 46.5t85.5 24l-15 -58q-55 24 -74.5 59t-19.5 75q0 54 21.5 93.5t56 64.5t74 36t75.5 9q59 -4 104 -27.5t77 -67.5q7 -9 7 -32q0 -22 -15.5 -39.5
t-47.5 -15.5q-7 0 -14 7q-26 29 -59 43.5t-68 14.5q-27 0 -47 -8.5t-31 -23t-11 -33.5t13 -33t33 -24t43 -16.5t44 -10.5q98 -19 144.5 -62.5t41.5 -107.5zM232 232l108 -27q19 -1 34 5.5t24 19.5t9 31q0 17 -9.5 28.5t-26.5 17.5l-124 32q-16 6 -33.5 2.5t-29 -16.5
t-11.5 -36q0 -10 9.5 -26.5t49.5 -30.5z" />
    <glyph glyph-name="dieresis" unicode="&#xa8;" horiz-adv-x="422" 
d="M308 600q-31 0 -45 11.5t-14 38.5v18q0 29 15.5 39.5t45.5 10.5q33 0 47.5 -11t14.5 -39v-18q0 -30 -15 -40t-49 -10zM109 600q-31 0 -45 11.5t-14 38.5v18q0 28 15 39t44 11q35 0 49.5 -10.5t14.5 -39.5v-18q0 -30 -15 -40t-49 -10z" />
    <glyph glyph-name="copyright" unicode="&#xa9;" horiz-adv-x="780" 
d="M390 -10q-74 0 -139.5 28t-115 77.5t-77.5 115t-28 139.5q0 75 28 140t77.5 114.5t115 77.5t139.5 28t139.5 -28t115 -77.5t77.5 -114.5t28 -140q0 -74 -28 -139.5t-77.5 -115t-115 -77.5t-139.5 -28zM390 64q59 0 111 22t91.5 61.5t61.5 91.5t22 111q0 60 -22 111.5
t-61.5 91t-91.5 61.5t-111 22t-110.5 -22t-91 -61.5t-62 -91t-22.5 -111.5q0 -59 22 -111t61.5 -91.5t91.5 -61.5t111 -22zM407 136q-54 0 -105 25.5t-83.5 73.5t-32.5 115q0 58 30 106.5t80.5 78t110.5 29.5q55 0 100 -24q20 -9 23 -30.5t-9 -37.5q-10 -13 -26 -15t-30 5
q-13 6 -27.5 9t-30.5 3q-36 0 -65.5 -17t-47.5 -45t-18 -62q0 -39 19 -67t49 -42.5t63 -14.5q15 0 29.5 3t28.5 9q14 7 30 4.5t26 -15.5q14 -18 9.5 -38.5t-22.5 -29.5q-24 -12 -49.5 -17.5t-51.5 -5.5z" />
    <glyph glyph-name="ordfeminine" unicode="&#xaa;" horiz-adv-x="354" 
d="M139 391q-43 0 -72 23.5t-43 63.5t-14 87q0 44 17 80.5t49 58t77 21.5q46 0 70.5 -31.5t24.5 -97.5l-14 61v27q0 15 14 27.5t36 12.5q23 0 36.5 -12t13.5 -28v-243q0 -18 -15 -29t-35 -11q-22 0 -36 11.5t-14 28.5v33l14 42q0 -25 -12.5 -54t-37 -50t-59.5 -21zM177 469
q24 0 42.5 22.5t18.5 63.5q0 42 -16.5 67t-48.5 25q-26 0 -44.5 -24.5t-18.5 -57.5q0 -39 16 -67.5t51 -28.5z" />
    <glyph glyph-name="guillemotleft" unicode="&#xab;" horiz-adv-x="486" 
d="M402 50q-24 0 -39 21l-119 165q-9 14 -9 28q0 15 9 27l121 164q14 20 38 20q17 0 34.5 -13.5t17.5 -36.5q0 -17 -13 -35l-98 -133v15l101 -136q6 -7 8.5 -16t2.5 -17q0 -25 -18.5 -39t-35.5 -14zM182 50q-24 0 -39 21l-119 165q-9 14 -9 28q0 15 9 27l121 164
q14 20 38 20q17 0 34.5 -13.5t17.5 -36.5q0 -17 -13 -35l-98 -133v15l101 -136q6 -7 8.5 -16t2.5 -17q0 -25 -18.5 -39t-35.5 -14z" />
    <glyph glyph-name="logicalnot" unicode="&#xac;" horiz-adv-x="682" 
d="M566 130q-27 0 -45.5 17t-18.5 44v129l20 -14h-421q-22 0 -36.5 17t-14.5 44q0 26 14.5 42.5t36.5 16.5h480q23 0 37 -14t14 -37v-184q0 -27 -18.5 -44t-47.5 -17z" />
    <glyph glyph-name="uni00AD" unicode="&#xad;" horiz-adv-x="396" 
d="M111 247q-26 0 -43.5 17t-17.5 43t17.5 42.5t43.5 16.5h174q26 0 43.5 -17.5t17.5 -43.5q0 -25 -17.5 -41.5t-43.5 -16.5h-174z" />
    <glyph glyph-name="registered" unicode="&#xae;" horiz-adv-x="490" 
d="M181 363q-11 0 -18.5 7.5t-7.5 20.5v190q0 8 6 14.5t15 6.5h85q28 0 49 -21t21 -53q0 -17 -12.5 -33t-26.5 -24v4q13 -9 20 -20.5t8 -22.5q1 -12 2.5 -20t7.5 -13q8 -6 8 -16t-6 -15q-9 -7 -18.5 -6t-16.5 5q-8 5 -16.5 18t-8.5 41q0 14 -7 22t-28 8h-39l8 9v-74
q0 -13 -7 -20.5t-18 -7.5zM250 499q14 0 23.5 8t9.5 20t-9.5 19t-23.5 7h-50l6 6v-66l-4 6h48zM245 260q-62 0 -113.5 30t-81.5 81.5t-30 113.5t30 113t81.5 81.5t113.5 30.5t113 -30.5t81.5 -81.5t30.5 -113t-30.5 -113.5t-81.5 -81.5t-113 -30zM245 318q46 0 83.5 22.5
t60.5 60.5t23 84t-23 83.5t-60.5 60.5t-83.5 23t-84 -23t-60.5 -60.5t-22.5 -83.5t22.5 -84t60.5 -60.5t84 -22.5z" />
    <glyph glyph-name="macron" unicode="&#xaf;" horiz-adv-x="442" 
d="M100 600q-50 0 -50 45q0 44 50 44h242q50 0 50 -44q0 -45 -50 -45h-242z" />
    <glyph glyph-name="degree" unicode="&#xb0;" horiz-adv-x="393" 
d="M196 385q-48 0 -85.5 22.5t-59 59.5t-21.5 80q0 45 21.5 82t59 59t85.5 22q49 0 86.5 -22t59 -59t21.5 -82q0 -43 -21.5 -80t-59 -59.5t-86.5 -22.5zM196 465q35 0 56 25.5t21 56.5q0 33 -21 58t-56 25q-34 0 -55 -24t-21 -59q0 -31 21 -56.5t55 -25.5z" />
    <glyph glyph-name="plusminus" unicode="&#xb1;" horiz-adv-x="578" 
d="M96 363q-24 0 -40 16t-16 40t16 39t40 15h407q24 0 40 -15.5t16 -39.5t-16 -39.5t-40 -15.5h-407zM298 225q-28 0 -46.5 18t-18.5 46v280q0 28 19 46t47 18q29 0 46.5 -18t17.5 -46v-280q0 -28 -18 -46t-47 -18zM96 69q-24 0 -40 16t-16 40t16 40t40 16h386q24 0 40 -16
t16 -40t-16 -40t-40 -16h-386z" />
    <glyph glyph-name="uni00B2" unicode="&#xb2;" horiz-adv-x="364" 
d="M96 377q-20 0 -33 13t-13 32q0 13 5 21.5t14 17.5l75 69q27 26 46.5 52t19.5 51q0 20 -10 29.5t-27 9.5q-12 0 -23.5 -7t-19.5 -18q-7 -8 -15 -10.5t-16 -2.5q-22 0 -33.5 12.5t-11.5 28.5q0 23 21 42t51 30t57 11q46 0 74.5 -18.5t41.5 -46.5t13 -58q0 -23 -11 -45.5
t-29 -43.5t-39 -41l-67 -58l-6 10h113q18 0 29.5 -11.5t11.5 -28.5t-11.5 -28.5t-29.5 -11.5h-177z" />
    <glyph glyph-name="uni00B3" unicode="&#xb3;" horiz-adv-x="355" 
d="M175 372q-31 0 -55 5t-38 14q-22 13 -22 37q0 17 11.5 29.5t29.5 12.5q5 0 9.5 -0.5t11.5 -5.5q6 -4 16.5 -10t27.5 -6q22 0 40.5 11.5t18.5 39.5q0 20 -15.5 31t-39.5 11q-17 0 -29 -6.5t-31 -6.5q-13 0 -24 10.5t-11 25.5q0 8 2.5 17.5t9.5 14.5l100 80l25 -4h-111
q-18 0 -29.5 11.5t-11.5 29.5q0 17 11.5 28t29.5 11h152q20 0 33 -13t13 -33q0 -22 -13 -32l-100 -78l-9 12q5 2 10 3.5t9 1.5q43 0 69 -16t38 -41.5t12 -54.5q0 -42 -21 -71t-53 -43.5t-66 -14.5z" />
    <glyph glyph-name="acute" unicode="&#xb4;" horiz-adv-x="261" 
d="M85 599q-8 0 -20.5 8.5t-11.5 24.5q0 9 6 19l58 102q9 16 23 28t32 12q28 0 41 -14.5t12 -35.5q-1 -10 -5.5 -21t-13.5 -22l-76 -84q-10 -11 -22 -14t-23 -3z" />
    <glyph glyph-name="uni00B5" unicode="&#xb5;" horiz-adv-x="606" 
d="M141 -160q-29 0 -44.5 15.5t-15.5 44.5l-1 554q0 26 17 43.5t43 17.5t43 -17.5t17 -43.5v-216q0 -38 8 -69.5t29.5 -50t59.5 -18.5q29 0 51 10.5t37.5 29.5t23 44t7.5 54v216q0 26 17 43.5t43 17.5t43 -17.5t17 -43.5v-393q0 -26 -17 -43.5t-43 -17.5t-43 17.5t-17 43.5
v29l2 -7q-4 -10 -21 -32.5t-47.5 -41.5t-74.5 -19q-9 0 -24.5 3.5t-30.5 11t-24 20.5l4 26v-151q0 -29 -15 -44.5t-44 -15.5z" />
    <glyph glyph-name="paragraph" unicode="&#xb6;" horiz-adv-x="632" 
d="M508 0q-13 0 -29.5 10.5t-16.5 35.5v609l14 -30h-87l10 19v-573q0 -49 -19 -78.5t-49.5 -42.5t-66.5 -13q-19 0 -40 3.5t-36 11.5t-23 25.5t2 36.5q8 16 22 20t25 1q12 -3 23.5 -5.5t21.5 -2.5q23 0 36.5 15t13.5 49v232l26 -38h-86q-73 0 -120.5 21.5t-70.5 66.5
t-23 113q0 75 28 122t85.5 69.5t143.5 22.5h219q18 0 29.5 -11.5t11.5 -29.5v-613q0 -25 -15 -35.5t-29 -10.5z" />
    <glyph glyph-name="periodcentered" unicode="&#xb7;" horiz-adv-x="222" 
d="M104 238q-29 0 -44.5 15.5t-15.5 44.5v17q0 29 15.5 44.5t44.5 15.5h13q29 0 44.5 -15.5t15.5 -44.5v-17q0 -29 -15.5 -44.5t-44.5 -15.5h-13z" />
    <glyph glyph-name="cedilla" unicode="&#xb8;" horiz-adv-x="261" 
d="M115 -151q-10 0 -25.5 5.5t-27.5 16t-12 24.5q0 15 12 30l78 105h71l-55 -149q-12 -32 -41 -32z" />
    <glyph glyph-name="uni00B9" unicode="&#xb9;" horiz-adv-x="320" 
d="M195 395q-19 0 -32 13t-13 33v235l7 -24l-41 -28q-7 -5 -15.5 -8t-16.5 -3q-22 0 -33 16.5t-11 31.5q0 25 25 39l96 55q19 8 29 8q22 0 36 -14t14 -37v-271q0 -20 -12.5 -33t-32.5 -13z" />
    <glyph glyph-name="ordmasculine" unicode="&#xba;" horiz-adv-x="350" 
d="M335 549q0 -45 -21 -80.5t-57.5 -56t-82.5 -20.5q-45 0 -81 20.5t-57 56t-21 80.5q0 46 21 82t57 57.5t81 21.5q46 0 82.5 -21.5t57.5 -57.5t21 -82zM240 549q0 33 -17.5 54.5t-48.5 21.5q-30 0 -47 -21.5t-17 -54.5q0 -31 17 -51.5t47 -20.5q31 0 48.5 20.5t17.5 51.5z
" />
    <glyph glyph-name="guillemotright" unicode="&#xbb;" horiz-adv-x="497" 
d="M315 475q24 0 39 -21l119 -165q9 -13 9 -28t-9 -27l-121 -164q-14 -20 -38 -20q-17 0 -34.5 14t-17.5 36q0 17 13 35l98 133v-15l-101 136q-6 8 -8.5 16.5t-2.5 16.5q0 26 19 39.5t35 13.5zM84 475q24 0 39 -21l119 -165q9 -13 9 -28t-9 -27l-121 -164q-14 -20 -38 -20
q-17 0 -34.5 14t-17.5 36q0 17 13 35l98 133v-15l-101 136q-6 8 -8.5 16.5t-2.5 16.5q0 26 19 39.5t35 13.5z" />
    <glyph glyph-name="onequarter" unicode="&#xbc;" horiz-adv-x="827" 
d="M195 343q-19 0 -32 13t-13 33v235l7 -24l-41 -28q-7 -5 -15.5 -8t-16.5 -3q-22 0 -33 16.5t-11 31.5q0 25 25 39l96 55q19 8 29 8q22 0 36 -14t14 -37v-271q0 -20 -12.5 -33t-32.5 -13zM215 -2q-16 0 -34 13.5t-18 35.5q0 13 10 30l398 601q18 24 41 24q17 0 34.5 -13
t17.5 -36q0 -13 -10 -30l-398 -601q-18 -24 -41 -24zM680 0q-19 0 -32 13t-13 33v264l42 -17l-135 -151l4 23h200q41 0 41 -40t-41 -40h-239q-22 0 -37.5 14t-15.5 36q0 8 2.5 17t8.5 16l165 192q11 14 24 17.5t21 3.5q22 0 36 -14t14 -37v-284q0 -20 -12.5 -33t-32.5 -13z
" />
    <glyph glyph-name="onehalf" unicode="&#xbd;" horiz-adv-x="844" 
d="M195 343q-19 0 -32 13t-13 33v235l7 -24l-41 -28q-7 -5 -15.5 -8t-16.5 -3q-22 0 -33 16.5t-11 31.5q0 25 25 39l96 55q19 8 29 8q22 0 36 -14t14 -37v-271q0 -20 -12.5 -33t-32.5 -13zM192 -2q-16 0 -34 13.5t-18 35.5q0 13 10 30l398 601q18 24 41 24q17 0 34.5 -13
t17.5 -36q0 -13 -10 -30l-398 -601q-18 -24 -41 -24zM586 0q-20 0 -33 13t-13 32q0 13 5 21.5t14 17.5l75 69q27 26 46.5 52t19.5 51q0 20 -10 29.5t-27 9.5q-12 0 -23.5 -7t-19.5 -18q-7 -8 -15 -10.5t-16 -2.5q-22 0 -33.5 12.5t-11.5 28.5q0 23 21 42t51 30t57 11
q46 0 74.5 -18.5t41.5 -46.5t13 -58q0 -23 -11 -45.5t-29 -43.5t-39 -41l-67 -58l-6 10h113q18 0 29.5 -11.5t11.5 -28.5t-11.5 -28.5t-29.5 -11.5h-177z" />
    <glyph glyph-name="threequarters" unicode="&#xbe;" horiz-adv-x="843" 
d="M165 320q-31 0 -55 5t-38 14q-22 13 -22 37q0 17 11.5 29.5t29.5 12.5q5 0 9.5 -0.5t11.5 -5.5q6 -4 16.5 -10t27.5 -6q22 0 40.5 11.5t18.5 39.5q0 20 -15.5 31t-39.5 11q-17 0 -29 -6.5t-31 -6.5q-13 0 -24 10.5t-11 25.5q0 8 2.5 17.5t9.5 14.5l100 80l25 -4h-111
q-18 0 -29.5 11.5t-11.5 29.5q0 17 11.5 28t29.5 11h152q20 0 33 -13t13 -33q0 -22 -13 -32l-100 -78l-9 12q5 2 10 3.5t9 1.5q43 0 69 -16t38 -41.5t12 -54.5q0 -42 -21 -71t-53 -43.5t-66 -14.5zM227 -2q-16 0 -34 13.5t-18 35.5q0 13 10 30l398 601q18 24 41 24
q17 0 34.5 -13t17.5 -36q0 -13 -10 -30l-398 -601q-18 -24 -41 -24zM696 0q-19 0 -32 13t-13 33v264l42 -17l-135 -151l4 23h200q41 0 41 -40t-41 -40h-239q-22 0 -37.5 14t-15.5 36q0 8 2.5 17t8.5 16l165 192q11 14 24 17.5t21 3.5q22 0 36 -14t14 -37v-284
q0 -20 -12.5 -33t-32.5 -13z" />
    <glyph glyph-name="questiondown" unicode="&#xbf;" horiz-adv-x="527" 
d="M355 209q0 -26 -17 -43.5t-43 -17.5q-40 0 -73.5 -12.5t-53 -40.5t-19.5 -74q0 -33 16.5 -59.5t45.5 -41.5t64 -15q28 0 53 10t44 27q16 14 39 20.5t45 -10.5q24 -18 26 -43t-19 -46q-36 -37 -84 -57.5t-104 -20.5q-68 0 -124 31.5t-89 85t-33 119.5q0 50 15 88.5
t42.5 66t64 44t79.5 23.5q2 1 3.5 2t1.5 3v37q0 26 17 43.5t43 17.5t43 -17.5t17 -43.5v-76zM300 525q29 0 44.5 -15.5t15.5 -44.5v-17q0 -29 -15.5 -44.5t-44.5 -15.5h-13q-29 0 -44.5 15.5t-15.5 44.5v17q0 29 15.5 44.5t44.5 15.5h13z" />
    <glyph glyph-name="Agrave" unicode="&#xc0;" horiz-adv-x="639" 
d="M332 543l-216 -508q-7 -19 -21.5 -29.5t-31.5 -10.5q-27 0 -40 15t-13 37q0 9 3 19l249 598q8 20 24.5 31t35.5 9q18 0 33.5 -10.5t22.5 -29.5l246 -586q5 -13 5 -24q0 -27 -17.5 -43t-38.5 -16q-18 0 -32.5 11t-22.5 30l-215 501zM147 157l55 115h270l19 -115h-344z
M320 742q-5 0 -11 1.5t-12 4.5l-100 53q-37 20 -37 53q0 23 18 36t35 13q14 0 26.5 -6.5t22.5 -15.5l86 -76q8 -7 11 -13.5t3 -13.5q0 -16 -11.5 -26t-30.5 -10z" />
    <glyph glyph-name="Aacute" unicode="&#xc1;" horiz-adv-x="639" 
d="M332 543l-216 -508q-7 -19 -21.5 -29.5t-31.5 -10.5q-27 0 -40 15t-13 37q0 9 3 19l249 598q8 20 24.5 31t35.5 9q18 0 33.5 -10.5t22.5 -29.5l246 -586q5 -13 5 -24q0 -27 -17.5 -43t-38.5 -16q-18 0 -32.5 11t-22.5 30l-215 501zM147 157l55 115h270l19 -115h-344z
M323 738q-19 0 -30.5 10t-11.5 26q0 7 3.5 13.5t10.5 13.5l86 76q11 9 23.5 15.5t25.5 6.5q17 0 35 -13t18 -36q0 -15 -9.5 -29.5t-27.5 -23.5l-100 -53q-6 -4 -12 -5t-11 -1z" />
    <glyph glyph-name="Acircumflex" unicode="&#xc2;" horiz-adv-x="639" 
d="M332 543l-216 -508q-7 -19 -21.5 -29.5t-31.5 -10.5q-27 0 -40 15t-13 37q0 9 3 19l249 598q8 20 24.5 31t35.5 9q18 0 33.5 -10.5t22.5 -29.5l246 -586q5 -13 5 -24q0 -27 -17.5 -43t-38.5 -16q-18 0 -32.5 11t-22.5 30l-215 501zM147 157l55 115h270l19 -115h-344z
M340 811l-84 -49q-17 -10 -29 -16t-22 -6q-13 0 -22 8t-9 17q0 8 3 14t12 16l63 72q13 14 27 21.5t34 7.5h16q20 0 34 -7.5t27 -21.5l63 -72q9 -10 12 -16t3 -14q0 -9 -8.5 -17t-22.5 -8q-10 0 -22 6t-29 16l-84 49h38z" />
    <glyph glyph-name="Atilde" unicode="&#xc3;" horiz-adv-x="639" 
d="M332 543l-216 -508q-7 -19 -21.5 -29.5t-31.5 -10.5q-27 0 -40 15t-13 37q0 9 3 19l249 598q8 20 24.5 31t35.5 9q18 0 33.5 -10.5t22.5 -29.5l246 -586q5 -13 5 -24q0 -27 -17.5 -43t-38.5 -16q-18 0 -32.5 11t-22.5 30l-215 501zM147 157l55 115h270l19 -115h-344z
M187 736q-22 0 -38.5 19.5t-16.5 51.5t28.5 60t82.5 28q34 0 63 -15.5t53.5 -31t42.5 -15.5q11 0 17 5.5t3 15.5q-7 23 5 36t30 13q23 0 39 -19t16 -50q0 -17 -10 -38t-31 -36.5t-54 -15.5q-37 0 -70 15.5t-60 31t-45 15.5q-10 0 -16.5 -5.5t-3.5 -15.5q7 -22 -5 -35.5
t-30 -13.5z" />
    <glyph glyph-name="Adieresis" unicode="&#xc4;" horiz-adv-x="639" 
d="M332 543l-216 -508q-7 -19 -21.5 -29.5t-31.5 -10.5q-27 0 -40 15t-13 37q0 9 3 19l249 598q8 20 24.5 31t35.5 9q18 0 33.5 -10.5t22.5 -29.5l246 -586q5 -13 5 -24q0 -27 -17.5 -43t-38.5 -16q-18 0 -32.5 11t-22.5 30l-215 501zM147 157l55 115h270l19 -115h-344z
M420 760q-31 0 -45.5 11t-14.5 39v18q0 29 15 39.5t45 10.5q34 0 48.5 -11t14.5 -39v-18q0 -29 -15 -39.5t-48 -10.5zM221 760q-31 0 -45.5 11t-14.5 39v18q0 29 15.5 39.5t45.5 10.5q33 0 47.5 -11t14.5 -39v-18q0 -29 -15 -39.5t-48 -10.5z" />
    <glyph glyph-name="Aring" unicode="&#xc5;" horiz-adv-x="643" 
d="M322 635q-30 0 -56 15t-42 40t-16 54q0 31 16 56t42 40t56 15t56 -15t42 -40t16 -56q0 -29 -16 -54t-42 -40t-56 -15zM322 705q19 0 31.5 11t12.5 28q0 21 -13.5 31t-30.5 10q-19 0 -31.5 -10.5t-12.5 -30.5q0 -17 12.5 -28t31.5 -11zM332 543l-216 -508
q-7 -19 -21.5 -29.5t-31.5 -10.5q-27 0 -40 15t-13 37q0 9 3 19l249 598q8 20 24.5 31t35.5 9q18 0 33.5 -10.5t22.5 -29.5l246 -586q5 -13 5 -24q0 -27 -17.5 -43t-38.5 -16q-18 0 -32.5 11t-22.5 30l-215 501zM147 157l55 115h270l19 -115h-344z" />
    <glyph glyph-name="AE" unicode="&#xc6;" horiz-adv-x="884" 
d="M197 256h228l-18 -38v289l21 -6l-325 -482q-18 -24 -43 -24q-19 0 -36.5 14t-19.5 39q-1 20 13 41l408 585q11 15 25.5 20.5t30.5 5.5h302q26 0 43.5 -16.5t17.5 -42.5q0 -25 -17.5 -40.5t-43.5 -15.5h-261l10 9v-203l-9 19h215q26 0 43.5 -16.5t17.5 -42.5
q0 -25 -17.5 -40.5t-43.5 -15.5h-216l10 15v-221l-10 26h261q26 0 43.5 -17.5t17.5 -40.5q0 -25 -17.5 -41t-43.5 -16h-315q-26 0 -43.5 17.5t-17.5 43.5v95l25 -13h-294z" />
    <glyph glyph-name="Ccedilla" unicode="&#xc7;" horiz-adv-x="627" 
d="M565 666q26 -13 30.5 -41t-14.5 -51q-13 -18 -33.5 -20t-41.5 8q-24 11 -50.5 17t-55.5 6q-54 0 -96.5 -17t-72.5 -48.5t-45.5 -74.5t-15.5 -95q0 -61 17.5 -106t48.5 -75t73 -44.5t91 -14.5q27 0 54 5t52 18q21 10 41.5 7t34.5 -21q20 -25 14.5 -51.5t-30.5 -38.5
q-26 -13 -53.5 -21.5t-55.5 -13t-57 -4.5q-72 0 -136.5 23t-115 68t-79.5 112.5t-29 156.5q0 77 26.5 142t75 112.5t114.5 74t144 26.5q44 0 86 -10t79 -29zM329 -151q-10 0 -25.5 5.5t-27.5 16t-12 24.5q0 15 12 30l78 105h71l-55 -149q-12 -32 -41 -32z" />
    <glyph glyph-name="Egrave" unicode="&#xc8;" horiz-adv-x="572" 
d="M136 700h335q26 0 43.5 -16.5t17.5 -42.5q0 -25 -17.5 -40.5t-43.5 -15.5h-280l9 17v-195l-8 8h234q26 0 43.5 -16.5t17.5 -42.5q0 -25 -17.5 -40.5t-43.5 -15.5h-231l5 8v-202l-8 9h279q26 0 43.5 -17.5t17.5 -40.5q0 -25 -17.5 -41t-43.5 -16h-335q-26 0 -43.5 17.5
t-17.5 43.5v578q0 26 17.5 43.5t43.5 17.5zM304 742q-5 0 -11 1.5t-12 4.5l-100 53q-37 20 -37 53q0 23 18 36t35 13q14 0 26.5 -6.5t22.5 -15.5l86 -76q8 -7 11 -13.5t3 -13.5q0 -16 -11.5 -26t-30.5 -10z" />
    <glyph glyph-name="Eacute" unicode="&#xc9;" horiz-adv-x="572" 
d="M136 700h335q26 0 43.5 -16.5t17.5 -42.5q0 -25 -17.5 -40.5t-43.5 -15.5h-280l9 17v-195l-8 8h234q26 0 43.5 -16.5t17.5 -42.5q0 -25 -17.5 -40.5t-43.5 -15.5h-231l5 8v-202l-8 9h279q26 0 43.5 -17.5t17.5 -40.5q0 -25 -17.5 -41t-43.5 -16h-335q-26 0 -43.5 17.5
t-17.5 43.5v578q0 26 17.5 43.5t43.5 17.5zM307 738q-19 0 -30.5 10t-11.5 26q0 7 3.5 13.5t10.5 13.5l86 76q11 9 23.5 15.5t25.5 6.5q17 0 35 -13t18 -36q0 -15 -9.5 -29.5t-27.5 -23.5l-100 -53q-6 -4 -12 -5t-11 -1z" />
    <glyph glyph-name="Ecircumflex" unicode="&#xca;" horiz-adv-x="572" 
d="M136 700h335q26 0 43.5 -16.5t17.5 -42.5q0 -25 -17.5 -40.5t-43.5 -15.5h-280l9 17v-195l-8 8h234q26 0 43.5 -16.5t17.5 -42.5q0 -25 -17.5 -40.5t-43.5 -15.5h-231l5 8v-202l-8 9h279q26 0 43.5 -17.5t17.5 -40.5q0 -25 -17.5 -41t-43.5 -16h-335q-26 0 -43.5 17.5
t-17.5 43.5v578q0 26 17.5 43.5t43.5 17.5zM324 811l-84 -49q-17 -10 -29 -16t-22 -6q-13 0 -22 8t-9 17q0 8 3 14t12 16l63 72q13 14 27 21.5t34 7.5h16q20 0 34 -7.5t27 -21.5l63 -72q9 -10 12 -16t3 -14q0 -9 -8.5 -17t-22.5 -8q-10 0 -22 6t-29 16l-84 49h38z" />
    <glyph glyph-name="Edieresis" unicode="&#xcb;" horiz-adv-x="572" 
d="M136 700h335q26 0 43.5 -16.5t17.5 -42.5q0 -25 -17.5 -40.5t-43.5 -15.5h-280l9 17v-195l-8 8h234q26 0 43.5 -16.5t17.5 -42.5q0 -25 -17.5 -40.5t-43.5 -15.5h-231l5 8v-202l-8 9h279q26 0 43.5 -17.5t17.5 -40.5q0 -25 -17.5 -41t-43.5 -16h-335q-26 0 -43.5 17.5
t-17.5 43.5v578q0 26 17.5 43.5t43.5 17.5zM404 760q-31 0 -45.5 11t-14.5 39v18q0 29 15 39.5t45 10.5q34 0 48.5 -11t14.5 -39v-18q0 -29 -15 -39.5t-48 -10.5zM205 760q-31 0 -45.5 11t-14.5 39v18q0 29 15.5 39.5t45.5 10.5q33 0 47.5 -11t14.5 -39v-18q0 -29 -15 -39.5
t-48 -10.5z" />
    <glyph glyph-name="Igrave" unicode="&#xcc;" horiz-adv-x="275" 
d="M200 61q0 -26 -19 -43.5t-44 -17.5q-28 0 -45 17.5t-17 43.5v578q0 26 18 43.5t46 17.5q24 0 42.5 -17.5t18.5 -43.5v-578zM138 742q-5 0 -11 1.5t-12 4.5l-100 53q-37 20 -37 53q0 23 18 36t35 13q14 0 26.5 -6.5t22.5 -15.5l86 -76q8 -7 11 -13.5t3 -13.5
q0 -16 -11.5 -26t-30.5 -10z" />
    <glyph glyph-name="Iacute" unicode="&#xcd;" horiz-adv-x="275" 
d="M200 61q0 -26 -19 -43.5t-44 -17.5q-28 0 -45 17.5t-17 43.5v578q0 26 18 43.5t46 17.5q24 0 42.5 -17.5t18.5 -43.5v-578zM141 738q-19 0 -30.5 10t-11.5 26q0 7 3.5 13.5t10.5 13.5l86 76q11 9 23.5 15.5t25.5 6.5q17 0 35 -13t18 -36q0 -15 -9.5 -29.5t-27.5 -23.5
l-100 -53q-6 -4 -12 -5t-11 -1z" />
    <glyph glyph-name="Icircumflex" unicode="&#xce;" horiz-adv-x="275" 
d="M200 61q0 -26 -19 -43.5t-44 -17.5q-28 0 -45 17.5t-17 43.5v578q0 26 18 43.5t46 17.5q24 0 42.5 -17.5t18.5 -43.5v-578zM158 811l-84 -49q-17 -10 -29 -16t-22 -6q-13 0 -22 8t-9 17q0 8 3 14t12 16l63 72q13 14 27 21.5t34 7.5h16q20 0 34 -7.5t27 -21.5l63 -72
q9 -10 12 -16t3 -14q0 -9 -8.5 -17t-22.5 -8q-10 0 -22 6t-29 16l-84 49h38z" />
    <glyph glyph-name="Idieresis" unicode="&#xcf;" horiz-adv-x="275" 
d="M200 61q0 -26 -19 -43.5t-44 -17.5q-28 0 -45 17.5t-17 43.5v578q0 26 18 43.5t46 17.5q24 0 42.5 -17.5t18.5 -43.5v-578zM238 760q-31 0 -45.5 11t-14.5 39v18q0 29 15 39.5t45 10.5q34 0 48.5 -11t14.5 -39v-18q0 -29 -15 -39.5t-48 -10.5zM39 760q-31 0 -45.5 11
t-14.5 39v18q0 29 15.5 39.5t45.5 10.5q33 0 47.5 -11t14.5 -39v-18q0 -29 -15 -39.5t-48 -10.5z" />
    <glyph glyph-name="Eth" unicode="&#xd0;" horiz-adv-x="715" 
d="M375 700q72 0 128 -27t94.5 -75.5t58 -112t19.5 -135.5q0 -97 -35 -176.5t-101.5 -126.5t-163.5 -47h-239q-26 0 -43.5 17.5t-17.5 43.5v578q0 26 17.5 43.5t43.5 17.5h239zM365 115q63 0 103 32.5t58.5 86t18.5 116.5q0 47 -10.5 89.5t-32.5 75t-56 51.5t-81 19h-175
l10 9v-490l-6 11h171zM57 297q-26 0 -43.5 15.5t-17.5 40.5q0 23 17.5 38.5t43.5 15.5h174q26 0 43.5 -15.5t17.5 -38.5q0 -25 -17.5 -40.5t-43.5 -15.5h-174z" />
    <glyph glyph-name="Ntilde" unicode="&#xd1;" horiz-adv-x="735" 
d="M606 700q24 0 39 -16t15 -40v-583q0 -26 -17.5 -43.5t-43.5 -17.5q-13 0 -26.5 4.5t-20.5 12.5l-393 499l26 16v-476q0 -24 -15.5 -40t-40.5 -16q-24 0 -39 16t-15 40v583q0 26 17.5 43.5t43.5 17.5q14 0 29 -5.5t22 -16.5l381 -486l-17 -12v464q0 24 15 40t40 16z
M233 736q-22 0 -38.5 19.5t-16.5 51.5t28.5 60t82.5 28q34 0 63 -15.5t53.5 -31t42.5 -15.5q11 0 17 5.5t3 15.5q-7 23 5 36t30 13q23 0 39 -19t16 -50q0 -17 -10 -38t-31 -36.5t-54 -15.5q-37 0 -70 15.5t-60 31t-45 15.5q-10 0 -16.5 -5.5t-3.5 -15.5q7 -22 -5 -35.5
t-30 -13.5z" />
    <glyph glyph-name="Ograve" unicode="&#xd2;" horiz-adv-x="759" 
d="M719 350q0 -75 -25 -140t-70.5 -114.5t-108 -77.5t-136.5 -28t-136 28t-107.5 77.5t-70.5 114.5t-25 140t25 140t70.5 114.5t107.5 77.5t136 28t136.5 -28t108 -77.5t70.5 -114.5t25 -140zM589 350q0 67 -27 121.5t-74 86.5t-109 32t-109 -32t-73.5 -86t-26.5 -122
q0 -67 26.5 -121.5t73.5 -86.5t109 -32t109 32t74 86.5t27 121.5zM378 742q-5 0 -11 1.5t-12 4.5l-100 53q-37 20 -37 53q0 23 18 36t35 13q14 0 26.5 -6.5t22.5 -15.5l86 -76q8 -7 11 -13.5t3 -13.5q0 -16 -11.5 -26t-30.5 -10z" />
    <glyph glyph-name="Oacute" unicode="&#xd3;" horiz-adv-x="759" 
d="M719 350q0 -75 -25 -140t-70.5 -114.5t-108 -77.5t-136.5 -28t-136 28t-107.5 77.5t-70.5 114.5t-25 140t25 140t70.5 114.5t107.5 77.5t136 28t136.5 -28t108 -77.5t70.5 -114.5t25 -140zM589 350q0 67 -27 121.5t-74 86.5t-109 32t-109 -32t-73.5 -86t-26.5 -122
q0 -67 26.5 -121.5t73.5 -86.5t109 -32t109 32t74 86.5t27 121.5zM381 738q-19 0 -30.5 10t-11.5 26q0 7 3.5 13.5t10.5 13.5l86 76q11 9 23.5 15.5t25.5 6.5q17 0 35 -13t18 -36q0 -15 -9.5 -29.5t-27.5 -23.5l-100 -53q-6 -4 -12 -5t-11 -1z" />
    <glyph glyph-name="Ocircumflex" unicode="&#xd4;" horiz-adv-x="759" 
d="M719 350q0 -75 -25 -140t-70.5 -114.5t-108 -77.5t-136.5 -28t-136 28t-107.5 77.5t-70.5 114.5t-25 140t25 140t70.5 114.5t107.5 77.5t136 28t136.5 -28t108 -77.5t70.5 -114.5t25 -140zM589 350q0 67 -27 121.5t-74 86.5t-109 32t-109 -32t-73.5 -86t-26.5 -122
q0 -67 26.5 -121.5t73.5 -86.5t109 -32t109 32t74 86.5t27 121.5zM398 811l-84 -49q-17 -10 -29 -16t-22 -6q-13 0 -22 8t-9 17q0 8 3 14t12 16l63 72q13 14 27 21.5t34 7.5h16q20 0 34 -7.5t27 -21.5l63 -72q9 -10 12 -16t3 -14q0 -9 -8.5 -17t-22.5 -8q-10 0 -22 6t-29 16
l-84 49h38z" />
    <glyph glyph-name="Otilde" unicode="&#xd5;" horiz-adv-x="759" 
d="M719 350q0 -75 -25 -140t-70.5 -114.5t-108 -77.5t-136.5 -28t-136 28t-107.5 77.5t-70.5 114.5t-25 140t25 140t70.5 114.5t107.5 77.5t136 28t136.5 -28t108 -77.5t70.5 -114.5t25 -140zM589 350q0 67 -27 121.5t-74 86.5t-109 32t-109 -32t-73.5 -86t-26.5 -122
q0 -67 26.5 -121.5t73.5 -86.5t109 -32t109 32t74 86.5t27 121.5zM245 736q-22 0 -38.5 19.5t-16.5 51.5t28.5 60t82.5 28q34 0 63 -15.5t53.5 -31t42.5 -15.5q11 0 17 5.5t3 15.5q-7 23 5 36t30 13q23 0 39 -19t16 -50q0 -17 -10 -38t-31 -36.5t-54 -15.5q-37 0 -70 15.5
t-60 31t-45 15.5q-10 0 -16.5 -5.5t-3.5 -15.5q7 -22 -5 -35.5t-30 -13.5z" />
    <glyph glyph-name="Odieresis" unicode="&#xd6;" horiz-adv-x="759" 
d="M719 350q0 -75 -25 -140t-70.5 -114.5t-108 -77.5t-136.5 -28t-136 28t-107.5 77.5t-70.5 114.5t-25 140t25 140t70.5 114.5t107.5 77.5t136 28t136.5 -28t108 -77.5t70.5 -114.5t25 -140zM589 350q0 67 -27 121.5t-74 86.5t-109 32t-109 -32t-73.5 -86t-26.5 -122
q0 -67 26.5 -121.5t73.5 -86.5t109 -32t109 32t74 86.5t27 121.5zM478 760q-31 0 -45.5 11t-14.5 39v18q0 29 15 39.5t45 10.5q34 0 48.5 -11t14.5 -39v-18q0 -29 -15 -39.5t-48 -10.5zM279 760q-31 0 -45.5 11t-14.5 39v18q0 29 15.5 39.5t45.5 10.5q33 0 47.5 -11
t14.5 -39v-18q0 -29 -15 -39.5t-48 -10.5z" />
    <glyph glyph-name="multiply" unicode="&#xd7;" horiz-adv-x="501" 
d="M105 125q-21 0 -38 17t-17 39t17 39l288 288q17 17 40 17q25 0 40.5 -18t15.5 -37q0 -22 -18 -40l-288 -287q-18 -18 -40 -18zM355 142l-288 288q-16 17 -16 40q0 25 17.5 40.5t36.5 15.5q22 0 40 -18l288 -288q17 -17 17 -40q0 -25 -17.5 -40t-37.5 -15q-21 0 -40 17z
" />
    <glyph glyph-name="Oslash" unicode="&#xd8;" horiz-adv-x="739" 
d="M105 -31q-19 0 -35 14.5t-16 35.5q0 18 12 33l550 678q8 10 18.5 14.5t20.5 4.5q20 0 35.5 -14t15.5 -35q0 -18 -12 -33l-550 -678q-7 -10 -17.5 -15t-21.5 -5zM719 350q0 -75 -25 -140t-70.5 -114.5t-108 -77.5t-136.5 -28t-136 28t-107.5 77.5t-70.5 114.5t-25 140
t25 140t70.5 114.5t107.5 77.5t136 28t136.5 -28t108 -77.5t70.5 -114.5t25 -140zM589 350q0 67 -27 121.5t-74 86.5t-109 32t-109 -32t-73.5 -86t-26.5 -122q0 -67 26.5 -121.5t73.5 -86.5t109 -32t109 32t74 86.5t27 121.5z" />
    <glyph glyph-name="Ugrave" unicode="&#xd9;" horiz-adv-x="705" 
d="M572 701q26 0 42 -17.5t16 -43.5v-362q0 -83 -35.5 -147t-97.5 -100t-144 -36t-144.5 36t-98 100t-35.5 147v362q0 26 18 43.5t46 17.5q23 0 41.5 -17.5t18.5 -43.5v-362q0 -50 21.5 -86.5t57 -56.5t75.5 -20q43 0 80 20t60 56.5t23 86.5v362q0 26 15 43.5t41 17.5z
M351 742q-5 0 -11 1.5t-12 4.5l-100 53q-37 20 -37 53q0 23 18 36t35 13q14 0 26.5 -6.5t22.5 -15.5l86 -76q8 -7 11 -13.5t3 -13.5q0 -16 -11.5 -26t-30.5 -10z" />
    <glyph glyph-name="Uacute" unicode="&#xda;" horiz-adv-x="705" 
d="M572 701q26 0 42 -17.5t16 -43.5v-362q0 -83 -35.5 -147t-97.5 -100t-144 -36t-144.5 36t-98 100t-35.5 147v362q0 26 18 43.5t46 17.5q23 0 41.5 -17.5t18.5 -43.5v-362q0 -50 21.5 -86.5t57 -56.5t75.5 -20q43 0 80 20t60 56.5t23 86.5v362q0 26 15 43.5t41 17.5z
M354 738q-19 0 -30.5 10t-11.5 26q0 7 3.5 13.5t10.5 13.5l86 76q11 9 23.5 15.5t25.5 6.5q17 0 35 -13t18 -36q0 -15 -9.5 -29.5t-27.5 -23.5l-100 -53q-6 -4 -12 -5t-11 -1z" />
    <glyph glyph-name="Ucircumflex" unicode="&#xdb;" horiz-adv-x="705" 
d="M572 701q26 0 42 -17.5t16 -43.5v-362q0 -83 -35.5 -147t-97.5 -100t-144 -36t-144.5 36t-98 100t-35.5 147v362q0 26 18 43.5t46 17.5q23 0 41.5 -17.5t18.5 -43.5v-362q0 -50 21.5 -86.5t57 -56.5t75.5 -20q43 0 80 20t60 56.5t23 86.5v362q0 26 15 43.5t41 17.5z
M371 811l-84 -49q-17 -10 -29 -16t-22 -6q-13 0 -22 8t-9 17q0 8 3 14t12 16l63 72q13 14 27 21.5t34 7.5h16q20 0 34 -7.5t27 -21.5l63 -72q9 -10 12 -16t3 -14q0 -9 -8.5 -17t-22.5 -8q-10 0 -22 6t-29 16l-84 49h38z" />
    <glyph glyph-name="Udieresis" unicode="&#xdc;" horiz-adv-x="705" 
d="M572 701q26 0 42 -17.5t16 -43.5v-362q0 -83 -35.5 -147t-97.5 -100t-144 -36t-144.5 36t-98 100t-35.5 147v362q0 26 18 43.5t46 17.5q23 0 41.5 -17.5t18.5 -43.5v-362q0 -50 21.5 -86.5t57 -56.5t75.5 -20q43 0 80 20t60 56.5t23 86.5v362q0 26 15 43.5t41 17.5z
M451 760q-31 0 -45.5 11t-14.5 39v18q0 29 15 39.5t45 10.5q34 0 48.5 -11t14.5 -39v-18q0 -29 -15 -39.5t-48 -10.5zM252 760q-31 0 -45.5 11t-14.5 39v18q0 29 15.5 39.5t45.5 10.5q33 0 47.5 -11t14.5 -39v-18q0 -29 -15 -39.5t-48 -10.5z" />
    <glyph glyph-name="Yacute" unicode="&#xdd;" horiz-adv-x="596" 
d="M521 703q23 0 41.5 -17.5t18.5 -44.5q0 -9 -2.5 -18.5t-8.5 -18.5l-227 -325l18 69v-287q0 -26 -17.5 -43.5t-40.5 -17.5q-25 0 -42.5 17.5t-17.5 43.5v279l8 -32l-216 287q-10 13 -14 25t-4 22q0 27 21 44t43 17q28 0 49 -28l192 -265l-28 4l177 259q21 30 50 30z
M299 738q-19 0 -30.5 10t-11.5 26q0 7 3.5 13.5t10.5 13.5l86 76q11 9 23.5 15.5t25.5 6.5q17 0 35 -13t18 -36q0 -15 -9.5 -29.5t-27.5 -23.5l-100 -53q-6 -4 -12 -5t-11 -1z" />
    <glyph glyph-name="Thorn" unicode="&#xde;" horiz-adv-x="603" 
d="M195 61q0 -26 -17.5 -43.5t-43.5 -17.5t-42.5 17.5t-16.5 43.5v618q0 26 17.5 43.5t43.5 17.5t42.5 -17.5t16.5 -43.5v-618zM184 280h180q19 0 37 14.5t30 38.5t12 52q0 29 -12 53t-30 38t-37 14h-181l-47 120h228q52 0 97.5 -30t73.5 -81t28 -114q0 -62 -28.5 -113
t-74 -81.5t-96.5 -30.5h-240z" />
    <glyph glyph-name="germandbls" unicode="&#xdf;" horiz-adv-x="667" 
d="M177 0q-26 0 -43 17.5t-17 43.5v441q0 54 16.5 97.5t47.5 74.5t75 47t99 16q68 0 116 -22.5t73.5 -61t25.5 -86.5q0 -35 -16.5 -62t-42 -46.5t-53.5 -32.5l-3 4q43 -14 83.5 -42t67 -71.5t26.5 -105.5q0 -65 -27 -115t-74 -78t-108 -28q-56 0 -90 16.5t-50 38.5
q-10 14 -9 36t26 38q16 10 34 8.5t35 -18.5q10 -10 26 -16.5t33 -6.5q31 0 49.5 15t26.5 40t8 54q0 46 -16.5 76t-45.5 48t-66 27q-25 8 -36 20.5t-11 31.5q0 20 7.5 33.5t20.5 20.5q25 13 44.5 27.5t30.5 33.5t11 43q0 36 -28 53.5t-74 17.5q-25 0 -45.5 -8t-35.5 -23.5
t-23 -38t-8 -51.5v-445q0 -26 -17 -43.5t-43 -17.5zM91 380q-26 0 -43.5 16.5t-17.5 41.5t17.5 41t43.5 16h94q26 0 33.5 -16t7.5 -41t-7.5 -41.5t-33.5 -16.5h-94z" />
    <glyph glyph-name="agrave" unicode="&#xe0;" horiz-adv-x="628" 
d="M503 545q26 0 43 -17t17 -44v-423q0 -26 -17 -43.5t-43 -17.5t-43 17.5t-17 43.5v49l22 -9q0 -13 -14 -31.5t-38 -36.5t-56.5 -30.5t-70.5 -12.5q-69 0 -125 35.5t-88.5 98t-32.5 143.5q0 82 32.5 144.5t87.5 98t122 35.5q43 0 79 -13t62.5 -33t41 -40.5t14.5 -34.5
l-36 -13v73q0 26 17 43.5t43 17.5zM301 100q44 0 77 22t51.5 60t18.5 85q0 48 -18.5 86t-51.5 60t-77 22q-43 0 -76 -22t-51.5 -60t-18.5 -86q0 -47 18.5 -85t51.5 -60t76 -22zM310 570q-5 0 -11 1.5t-12 4.5l-100 53q-18 10 -27.5 24t-9.5 29q0 23 18 36t35 13
q14 0 26.5 -6.5t22.5 -15.5l86 -76q14 -13 14 -27q0 -16 -11.5 -26t-30.5 -10z" />
    <glyph glyph-name="aacute" unicode="&#xe1;" horiz-adv-x="628" 
d="M503 545q26 0 43 -17t17 -44v-423q0 -26 -17 -43.5t-43 -17.5t-43 17.5t-17 43.5v49l22 -9q0 -13 -14 -31.5t-38 -36.5t-56.5 -30.5t-70.5 -12.5q-69 0 -125 35.5t-88.5 98t-32.5 143.5q0 82 32.5 144.5t87.5 98t122 35.5q43 0 79 -13t62.5 -33t41 -40.5t14.5 -34.5
l-36 -13v73q0 26 17 43.5t43 17.5zM301 100q44 0 77 22t51.5 60t18.5 85q0 48 -18.5 86t-51.5 60t-77 22q-43 0 -76 -22t-51.5 -60t-18.5 -86q0 -47 18.5 -85t51.5 -60t76 -22zM312 569q-8 0 -20.5 8.5t-11.5 24.5q0 9 6 19l58 102q9 16 23 28t32 12q28 0 41 -14.5t12 -35.5
q-1 -10 -5.5 -21t-13.5 -22l-76 -84q-10 -11 -22 -14t-23 -3z" />
    <glyph glyph-name="acircumflex" unicode="&#xe2;" horiz-adv-x="628" 
d="M503 545q26 0 43 -17t17 -44v-423q0 -26 -17 -43.5t-43 -17.5t-43 17.5t-17 43.5v49l22 -9q0 -13 -14 -31.5t-38 -36.5t-56.5 -30.5t-70.5 -12.5q-69 0 -125 35.5t-88.5 98t-32.5 143.5q0 82 32.5 144.5t87.5 98t122 35.5q43 0 79 -13t62.5 -33t41 -40.5t14.5 -34.5
l-36 -13v73q0 26 17 43.5t43 17.5zM301 100q44 0 77 22t51.5 60t18.5 85q0 48 -18.5 86t-51.5 60t-77 22q-43 0 -76 -22t-51.5 -60t-18.5 -86q0 -47 18.5 -85t51.5 -60t76 -22zM329 687l-77 -64q-13 -11 -21.5 -17.5t-27.5 -6.5q-13 0 -21.5 7.5t-8.5 17.5q0 8 2 14.5
t10 16.5l49 62q23 29 61 29h36q20 0 31.5 -6t22.5 -23l44 -62q8 -10 10 -16.5t2 -14.5q0 -10 -8 -17.5t-22 -7.5q-19 0 -27 6.5t-22 17.5l-84 74z" />
    <glyph glyph-name="atilde" unicode="&#xe3;" horiz-adv-x="628" 
d="M503 545q26 0 43 -17t17 -44v-423q0 -26 -17 -43.5t-43 -17.5t-43 17.5t-17 43.5v49l22 -9q0 -13 -14 -31.5t-38 -36.5t-56.5 -30.5t-70.5 -12.5q-69 0 -125 35.5t-88.5 98t-32.5 143.5q0 82 32.5 144.5t87.5 98t122 35.5q43 0 79 -13t62.5 -33t41 -40.5t14.5 -34.5
l-36 -13v73q0 26 17 43.5t43 17.5zM301 100q44 0 77 22t51.5 60t18.5 85q0 48 -18.5 86t-51.5 60t-77 22q-43 0 -76 -22t-51.5 -60t-18.5 -86q0 -47 18.5 -85t51.5 -60t76 -22zM173 590q-22 0 -38.5 18t-16.5 50t30 60t93 28q26 0 47 -10t38.5 -22.5t33 -22.5t28.5 -10
q11 0 17 5.5t3 15.5q-7 23 5 36t30 13q23 0 39 -17.5t16 -48.5q0 -17 -11 -38t-36 -36.5t-67 -15.5q-21 0 -42.5 10t-42.5 22.5t-39 22.5t-32 10q-10 0 -16.5 -5.5t-3.5 -15.5q7 -22 -5 -35.5t-30 -13.5z" />
    <glyph glyph-name="adieresis" unicode="&#xe4;" horiz-adv-x="628" 
d="M503 545q26 0 43 -17t17 -44v-423q0 -26 -17 -43.5t-43 -17.5t-43 17.5t-17 43.5v49l22 -9q0 -13 -14 -31.5t-38 -36.5t-56.5 -30.5t-70.5 -12.5q-69 0 -125 35.5t-88.5 98t-32.5 143.5q0 82 32.5 144.5t87.5 98t122 35.5q43 0 79 -13t62.5 -33t41 -40.5t14.5 -34.5
l-36 -13v73q0 26 17 43.5t43 17.5zM301 100q44 0 77 22t51.5 60t18.5 85q0 48 -18.5 86t-51.5 60t-77 22q-43 0 -76 -22t-51.5 -60t-18.5 -86q0 -47 18.5 -85t51.5 -60t76 -22zM404 600q-31 0 -45 11.5t-14 38.5v18q0 29 15.5 39.5t45.5 10.5q33 0 47.5 -11t14.5 -39v-18
q0 -30 -15 -40t-49 -10zM205 600q-31 0 -45 11.5t-14 38.5v18q0 28 15 39t44 11q35 0 49.5 -10.5t14.5 -39.5v-18q0 -30 -15 -40t-49 -10z" />
    <glyph glyph-name="aring" unicode="&#xe5;" horiz-adv-x="628" 
d="M503 545q26 0 43 -17t17 -44v-423q0 -26 -17 -43.5t-43 -17.5t-43 17.5t-17 43.5v49l22 -9q0 -13 -14 -31.5t-38 -36.5t-56.5 -30.5t-70.5 -12.5q-69 0 -125 35.5t-88.5 98t-32.5 143.5q0 82 32.5 144.5t87.5 98t122 35.5q43 0 79 -13t62.5 -33t41 -40.5t14.5 -34.5
l-36 -13v73q0 26 17 43.5t43 17.5zM301 100q44 0 77 22t51.5 60t18.5 85q0 48 -18.5 86t-51.5 60t-77 22q-43 0 -76 -22t-51.5 -60t-18.5 -86q0 -47 18.5 -85t51.5 -60t76 -22zM309 570q-30 0 -56 15t-42 40t-16 54q0 31 16 56t42 40t56 15t56 -15t42 -40t16 -56
q0 -29 -16 -54t-42 -40t-56 -15zM309 640q19 0 31.5 11t12.5 28q0 21 -13.5 31t-30.5 10q-19 0 -31.5 -10.5t-12.5 -30.5q0 -17 12.5 -28t31.5 -11z" />
    <glyph glyph-name="ae" unicode="&#xe6;" horiz-adv-x="926" 
d="M272 545q37 0 75.5 -7.5t71 -25.5t52.5 -48.5t20 -75.5v-121l-115 -7v91q0 38 -18 55.5t-43 23t-46 5.5q-35 0 -59 -9t-41 -24t-33 -34q-19 -21 -45 -21q-19 0 -35 13t-16 35q0 10 3 20.5t11 20.5q21 26 50.5 51t71 41.5t96.5 16.5zM233 -10q-45 0 -88.5 17t-72.5 53.5
t-29 93.5q0 52 21.5 90.5t69 60t124.5 21.5h518l-18 -18v25q-2 29 -20.5 52t-46 36.5t-58.5 13.5q-30 0 -56 -8t-45 -27t-30 -51t-11 -81q0 -54 22.5 -91.5t58 -57t75.5 -19.5q37 0 59 6t35.5 14.5t24.5 14.5q18 9 34 9q22 0 36.5 -15t14.5 -35q0 -27 -28 -49
q-26 -22 -73 -38.5t-97 -16.5q-85 0 -147.5 35.5t-96 96.5t-33.5 138q0 90 37 153.5t95.5 97.5t124.5 34q51 0 96.5 -21t80.5 -57.5t55.5 -84.5t20.5 -102q-1 -24 -19 -39t-42 -15h-579q-36 0 -53.5 -11t-23.5 -27t-6 -32q0 -20 11 -33t28 -19t35 -6q45 0 75 13.5t48.5 33
t27.5 36.5l53 -81q-14 -21 -44 -47t-71.5 -44.5t-92.5 -18.5z" />
    <glyph glyph-name="ccedilla" unicode="&#xe7;" horiz-adv-x="520" 
d="M303 545q57 0 99.5 -12t66 -33.5t23.5 -51.5q0 -20 -12 -37.5t-35 -17.5q-16 0 -26.5 4.5t-18.5 11.5t-19 13q-10 6 -30.5 9.5t-30.5 3.5q-51 0 -86.5 -22t-54.5 -59.5t-19 -86.5q0 -48 19.5 -85.5t54 -59.5t79.5 -22q25 0 43 3t30 9q14 8 25 17t33 9q26 0 40 -16.5
t14 -40.5q0 -25 -28 -45.5t-73.5 -33t-98.5 -12.5q-79 0 -137 36.5t-89.5 99.5t-31.5 141q0 82 33.5 144.5t93 98t136.5 35.5zM247 -151q-10 0 -25.5 5.5t-27.5 16t-12 24.5q0 15 12 30l78 105h71l-55 -149q-12 -32 -41 -32z" />
    <glyph glyph-name="egrave" unicode="&#xe8;" horiz-adv-x="590" 
d="M317 -10q-85 0 -147.5 35.5t-96 96.5t-33.5 138q0 90 36.5 153.5t95.5 97.5t125 34q51 0 96.5 -21t80.5 -57.5t55.5 -84.5t20.5 -102q-1 -24 -19 -39t-42 -15h-382l-30 100h367l-22 -20v27q-2 29 -20.5 52t-46 36.5t-58.5 13.5q-30 0 -56 -8t-45 -27t-30 -51t-11 -81
q0 -54 22.5 -91.5t58 -57t75.5 -19.5q37 0 59 6t35.5 14.5t24.5 14.5q18 9 34 9q22 0 36.5 -15t14.5 -35q0 -27 -28 -49q-26 -22 -73 -38.5t-97 -16.5zM296 570q-5 0 -11 1.5t-12 4.5l-100 53q-18 10 -27.5 24t-9.5 29q0 23 18 36t35 13q14 0 26.5 -6.5t22.5 -15.5l86 -76
q14 -13 14 -27q0 -16 -11.5 -26t-30.5 -10z" />
    <glyph glyph-name="eacute" unicode="&#xe9;" horiz-adv-x="590" 
d="M317 -10q-85 0 -147.5 35.5t-96 96.5t-33.5 138q0 90 36.5 153.5t95.5 97.5t125 34q51 0 96.5 -21t80.5 -57.5t55.5 -84.5t20.5 -102q-1 -24 -19 -39t-42 -15h-382l-30 100h367l-22 -20v27q-2 29 -20.5 52t-46 36.5t-58.5 13.5q-30 0 -56 -8t-45 -27t-30 -51t-11 -81
q0 -54 22.5 -91.5t58 -57t75.5 -19.5q37 0 59 6t35.5 14.5t24.5 14.5q18 9 34 9q22 0 36.5 -15t14.5 -35q0 -27 -28 -49q-26 -22 -73 -38.5t-97 -16.5zM298 569q-8 0 -20.5 8.5t-11.5 24.5q0 9 6 19l58 102q9 16 23 28t32 12q28 0 41 -14.5t12 -35.5q-1 -10 -5.5 -21
t-13.5 -22l-76 -84q-10 -11 -22 -14t-23 -3z" />
    <glyph glyph-name="ecircumflex" unicode="&#xea;" horiz-adv-x="590" 
d="M317 -10q-85 0 -147.5 35.5t-96 96.5t-33.5 138q0 90 36.5 153.5t95.5 97.5t125 34q51 0 96.5 -21t80.5 -57.5t55.5 -84.5t20.5 -102q-1 -24 -19 -39t-42 -15h-382l-30 100h367l-22 -20v27q-2 29 -20.5 52t-46 36.5t-58.5 13.5q-30 0 -56 -8t-45 -27t-30 -51t-11 -81
q0 -54 22.5 -91.5t58 -57t75.5 -19.5q37 0 59 6t35.5 14.5t24.5 14.5q18 9 34 9q22 0 36.5 -15t14.5 -35q0 -27 -28 -49q-26 -22 -73 -38.5t-97 -16.5zM315 687l-77 -64q-13 -11 -21.5 -17.5t-27.5 -6.5q-13 0 -21.5 7.5t-8.5 17.5q0 8 2 14.5t10 16.5l49 62q23 29 61 29h36
q20 0 31.5 -6t22.5 -23l44 -62q8 -10 10 -16.5t2 -14.5q0 -10 -8 -17.5t-22 -7.5q-19 0 -27 6.5t-22 17.5l-84 74z" />
    <glyph glyph-name="edieresis" unicode="&#xeb;" horiz-adv-x="590" 
d="M317 -10q-85 0 -147.5 35.5t-96 96.5t-33.5 138q0 90 36.5 153.5t95.5 97.5t125 34q51 0 96.5 -21t80.5 -57.5t55.5 -84.5t20.5 -102q-1 -24 -19 -39t-42 -15h-382l-30 100h367l-22 -20v27q-2 29 -20.5 52t-46 36.5t-58.5 13.5q-30 0 -56 -8t-45 -27t-30 -51t-11 -81
q0 -54 22.5 -91.5t58 -57t75.5 -19.5q37 0 59 6t35.5 14.5t24.5 14.5q18 9 34 9q22 0 36.5 -15t14.5 -35q0 -27 -28 -49q-26 -22 -73 -38.5t-97 -16.5zM390 600q-31 0 -45 11.5t-14 38.5v18q0 29 15.5 39.5t45.5 10.5q33 0 47.5 -11t14.5 -39v-18q0 -30 -15 -40t-49 -10z
M191 600q-31 0 -45 11.5t-14 38.5v18q0 28 15 39t44 11q35 0 49.5 -10.5t14.5 -39.5v-18q0 -30 -15 -40t-49 -10z" />
    <glyph glyph-name="igrave" unicode="&#xec;" horiz-adv-x="236" 
d="M178 61q0 -26 -17 -43.5t-43 -17.5t-43 17.5t-17 43.5v413q0 26 17 43.5t43 17.5t43 -17.5t17 -43.5v-413zM121 570q-5 0 -11 1.5t-12 4.5l-100 53q-18 10 -27.5 24t-9.5 29q0 23 18 36t35 13q14 0 26.5 -6.5t22.5 -15.5l86 -76q14 -13 14 -27q0 -16 -11.5 -26t-30.5 -10
z" />
    <glyph glyph-name="iacute" unicode="&#xed;" horiz-adv-x="236" 
d="M178 61q0 -26 -17 -43.5t-43 -17.5t-43 17.5t-17 43.5v413q0 26 17 43.5t43 17.5t43 -17.5t17 -43.5v-413zM123 569q-8 0 -20.5 8.5t-11.5 24.5q0 9 6 19l58 102q9 16 23 28t32 12q28 0 41 -14.5t12 -35.5q-1 -10 -5.5 -21t-13.5 -22l-76 -84q-10 -11 -22 -14t-23 -3z
" />
    <glyph glyph-name="icircumflex" unicode="&#xee;" horiz-adv-x="236" 
d="M178 61q0 -26 -17 -43.5t-43 -17.5t-43 17.5t-17 43.5v413q0 26 17 43.5t43 17.5t43 -17.5t17 -43.5v-413zM140 687l-77 -64q-13 -11 -21.5 -17.5t-27.5 -6.5q-13 0 -21.5 7.5t-8.5 17.5q0 8 2 14.5t10 16.5l49 62q23 29 61 29h36q20 0 31.5 -6t22.5 -23l44 -62
q8 -10 10 -16.5t2 -14.5q0 -10 -8 -17.5t-22 -7.5q-19 0 -27 6.5t-22 17.5l-84 74z" />
    <glyph glyph-name="idieresis" unicode="&#xef;" horiz-adv-x="236" 
d="M178 61q0 -26 -17 -43.5t-43 -17.5t-43 17.5t-17 43.5v413q0 26 17 43.5t43 17.5t43 -17.5t17 -43.5v-413zM215 600q-31 0 -45 11.5t-14 38.5v18q0 29 15.5 39.5t45.5 10.5q33 0 47.5 -11t14.5 -39v-18q0 -30 -15 -40t-49 -10zM16 600q-31 0 -45 11.5t-14 38.5v18
q0 28 15 39t44 11q35 0 49.5 -10.5t14.5 -39.5v-18q0 -30 -15 -40t-49 -10z" />
    <glyph glyph-name="eth" unicode="&#xf0;" horiz-adv-x="586" 
d="M293 -10q-70 0 -127.5 36t-91.5 98t-34 138q0 57 20.5 106.5t55 86.5t76.5 58t85 21q55 0 95 -25t64 -68.5t32 -98.5l-64 41q0 58 -11 97.5t-33 66t-55.5 44t-78.5 30.5q-23 6 -38 22.5t-15 38.5q0 20 12.5 39t39.5 19q15 0 31 -4q58 -17 105 -49t81.5 -75t57.5 -95.5
t34.5 -112.5t11.5 -124q0 -92 -34 -157t-91 -99t-128 -34zM293 110q38 0 68 20t47.5 54.5t17.5 77.5q0 44 -17.5 78t-47.5 54t-68 20q-37 0 -67.5 -20t-48 -54t-17.5 -78q0 -43 17.5 -77.5t48 -54.5t67.5 -20zM181 528q-22 -4 -39 2t-21 27t7 33t33 16l117 24l63 23l112 18
q22 3 39 -3t21 -26q4 -22 -7.5 -34t-32.5 -15l-72 -11l-45 -19z" />
    <glyph glyph-name="ntilde" unicode="&#xf1;" horiz-adv-x="596" 
d="M351 545q74 0 112.5 -31t53 -82.5t14.5 -114.5v-256q0 -26 -17 -43.5t-43 -17.5t-43 17.5t-17 43.5v256q0 33 -8.5 59.5t-30.5 42.5t-63 16q-40 0 -67.5 -16t-42 -42.5t-14.5 -59.5v-256q0 -26 -17 -43.5t-43 -17.5t-43 17.5t-17 43.5v413q0 26 17 43.5t43 17.5t43 -17.5
t17 -43.5v-43l-15 3q9 17 26 36.5t40 36.5t52 27.5t63 10.5zM179 590q-22 0 -38.5 18t-16.5 50t30 60t93 28q26 0 47 -10t38.5 -22.5t33 -22.5t28.5 -10q11 0 17 5.5t3 15.5q-7 23 5 36t30 13q23 0 39 -17.5t16 -48.5q0 -17 -11 -38t-36 -36.5t-67 -15.5q-21 0 -42.5 10
t-42.5 22.5t-39 22.5t-32 10q-10 0 -16.5 -5.5t-3.5 -15.5q7 -22 -5 -35.5t-30 -13.5z" />
    <glyph glyph-name="ograve" unicode="&#xf2;" horiz-adv-x="624" 
d="M584 267q0 -82 -36.5 -144.5t-98 -97.5t-137.5 -35t-137.5 35t-98 97.5t-36.5 144.5t36.5 144.5t98 98t137.5 35.5t137.5 -35.5t98 -98t36.5 -144.5zM464 267q0 51 -20.5 88.5t-55 58.5t-76.5 21t-76.5 -21t-55 -58.5t-20.5 -88.5q0 -50 20.5 -87.5t55 -58.5t76.5 -21
t76.5 21t55 58.5t20.5 87.5zM315 570q-5 0 -11 1.5t-12 4.5l-100 53q-18 10 -27.5 24t-9.5 29q0 23 18 36t35 13q14 0 26.5 -6.5t22.5 -15.5l86 -76q14 -13 14 -27q0 -16 -11.5 -26t-30.5 -10z" />
    <glyph glyph-name="oacute" unicode="&#xf3;" horiz-adv-x="624" 
d="M584 267q0 -82 -36.5 -144.5t-98 -97.5t-137.5 -35t-137.5 35t-98 97.5t-36.5 144.5t36.5 144.5t98 98t137.5 35.5t137.5 -35.5t98 -98t36.5 -144.5zM464 267q0 51 -20.5 88.5t-55 58.5t-76.5 21t-76.5 -21t-55 -58.5t-20.5 -88.5q0 -50 20.5 -87.5t55 -58.5t76.5 -21
t76.5 21t55 58.5t20.5 87.5zM317 569q-8 0 -20.5 8.5t-11.5 24.5q0 9 6 19l58 102q9 16 23 28t32 12q28 0 41 -14.5t12 -35.5q-1 -10 -5.5 -21t-13.5 -22l-76 -84q-10 -11 -22 -14t-23 -3z" />
    <glyph glyph-name="ocircumflex" unicode="&#xf4;" horiz-adv-x="624" 
d="M584 267q0 -82 -36.5 -144.5t-98 -97.5t-137.5 -35t-137.5 35t-98 97.5t-36.5 144.5t36.5 144.5t98 98t137.5 35.5t137.5 -35.5t98 -98t36.5 -144.5zM464 267q0 51 -20.5 88.5t-55 58.5t-76.5 21t-76.5 -21t-55 -58.5t-20.5 -88.5q0 -50 20.5 -87.5t55 -58.5t76.5 -21
t76.5 21t55 58.5t20.5 87.5zM334 687l-77 -64q-13 -11 -21.5 -17.5t-27.5 -6.5q-13 0 -21.5 7.5t-8.5 17.5q0 8 2 14.5t10 16.5l49 62q23 29 61 29h36q20 0 31.5 -6t22.5 -23l44 -62q8 -10 10 -16.5t2 -14.5q0 -10 -8 -17.5t-22 -7.5q-19 0 -27 6.5t-22 17.5l-84 74z" />
    <glyph glyph-name="otilde" unicode="&#xf5;" horiz-adv-x="624" 
d="M584 267q0 -82 -36.5 -144.5t-98 -97.5t-137.5 -35t-137.5 35t-98 97.5t-36.5 144.5t36.5 144.5t98 98t137.5 35.5t137.5 -35.5t98 -98t36.5 -144.5zM464 267q0 51 -20.5 88.5t-55 58.5t-76.5 21t-76.5 -21t-55 -58.5t-20.5 -88.5q0 -50 20.5 -87.5t55 -58.5t76.5 -21
t76.5 21t55 58.5t20.5 87.5zM178 590q-22 0 -38.5 18t-16.5 50t30 60t93 28q26 0 47 -10t38.5 -22.5t33 -22.5t28.5 -10q11 0 17 5.5t3 15.5q-7 23 5 36t30 13q23 0 39 -17.5t16 -48.5q0 -17 -11 -38t-36 -36.5t-67 -15.5q-21 0 -42.5 10t-42.5 22.5t-39 22.5t-32 10
q-10 0 -16.5 -5.5t-3.5 -15.5q7 -22 -5 -35.5t-30 -13.5z" />
    <glyph glyph-name="odieresis" unicode="&#xf6;" horiz-adv-x="624" 
d="M584 267q0 -82 -36.5 -144.5t-98 -97.5t-137.5 -35t-137.5 35t-98 97.5t-36.5 144.5t36.5 144.5t98 98t137.5 35.5t137.5 -35.5t98 -98t36.5 -144.5zM464 267q0 51 -20.5 88.5t-55 58.5t-76.5 21t-76.5 -21t-55 -58.5t-20.5 -88.5q0 -50 20.5 -87.5t55 -58.5t76.5 -21
t76.5 21t55 58.5t20.5 87.5zM409 600q-31 0 -45 11.5t-14 38.5v18q0 29 15.5 39.5t45.5 10.5q33 0 47.5 -11t14.5 -39v-18q0 -30 -15 -40t-49 -10zM210 600q-31 0 -45 11.5t-14 38.5v18q0 28 15 39t44 11q35 0 49.5 -10.5t14.5 -39.5v-18q0 -30 -15 -40t-49 -10z" />
    <glyph glyph-name="divide" unicode="&#xf7;" horiz-adv-x="619" 
d="M232 511q0 32 23 55t55 23t54.5 -23t22.5 -55q0 -31 -22.5 -54t-54.5 -23t-55 23t-23 54zM232 149q0 31 23 54t55 23t54.5 -23t22.5 -54q0 -32 -22.5 -55t-54.5 -23t-55 23t-23 55zM109 276q-25 0 -42 16.5t-17 39.5t17 38.5t42 15.5h401q26 0 42.5 -15.5t16.5 -38.5
t-16.5 -39.5t-42.5 -16.5h-401z" />
    <glyph glyph-name="oslash" unicode="&#xf8;" horiz-adv-x="624" 
d="M108 -20q-22 0 -36.5 15.5t-14.5 33.5q0 20 13 34l408 479q15 18 38 18q20 0 35.5 -14.5t15.5 -35.5q0 -18 -13 -33l-408 -479q-15 -18 -38 -18zM584 267q0 -82 -36.5 -144.5t-98 -97.5t-137.5 -35t-137.5 35t-98 97.5t-36.5 144.5t36.5 144.5t98 98t137.5 35.5
t137.5 -35.5t98 -98t36.5 -144.5zM464 267q0 51 -20.5 88.5t-55 58.5t-76.5 21t-76.5 -21t-55 -58.5t-20.5 -88.5q0 -50 20.5 -87.5t55 -58.5t76.5 -21t76.5 21t55 58.5t20.5 87.5z" />
    <glyph glyph-name="ugrave" unicode="&#xf9;" horiz-adv-x="587" 
d="M462 535q26 0 43 -17.5t17 -43.5v-254q0 -106 -59 -168t-170 -62t-169.5 62t-58.5 168v254q0 26 17 43.5t43 17.5t43 -17.5t17 -43.5v-254q0 -61 27 -90.5t81 -29.5q55 0 82 29.5t27 90.5v254q0 26 17 43.5t43 17.5zM297 570q-5 0 -11 1.5t-12 4.5l-100 53
q-18 10 -27.5 24t-9.5 29q0 23 18 36t35 13q14 0 26.5 -6.5t22.5 -15.5l86 -76q14 -13 14 -27q0 -16 -11.5 -26t-30.5 -10z" />
    <glyph glyph-name="uacute" unicode="&#xfa;" horiz-adv-x="587" 
d="M462 535q26 0 43 -17.5t17 -43.5v-254q0 -106 -59 -168t-170 -62t-169.5 62t-58.5 168v254q0 26 17 43.5t43 17.5t43 -17.5t17 -43.5v-254q0 -61 27 -90.5t81 -29.5q55 0 82 29.5t27 90.5v254q0 26 17 43.5t43 17.5zM299 569q-8 0 -20.5 8.5t-11.5 24.5q0 9 6 19l58 102
q9 16 23 28t32 12q28 0 41 -14.5t12 -35.5q-1 -10 -5.5 -21t-13.5 -22l-76 -84q-10 -11 -22 -14t-23 -3z" />
    <glyph glyph-name="ucircumflex" unicode="&#xfb;" horiz-adv-x="587" 
d="M462 535q26 0 43 -17.5t17 -43.5v-254q0 -106 -59 -168t-170 -62t-169.5 62t-58.5 168v254q0 26 17 43.5t43 17.5t43 -17.5t17 -43.5v-254q0 -61 27 -90.5t81 -29.5q55 0 82 29.5t27 90.5v254q0 26 17 43.5t43 17.5zM316 687l-77 -64q-13 -11 -21.5 -17.5t-27.5 -6.5
q-13 0 -21.5 7.5t-8.5 17.5q0 8 2 14.5t10 16.5l49 62q23 29 61 29h36q20 0 31.5 -6t22.5 -23l44 -62q8 -10 10 -16.5t2 -14.5q0 -10 -8 -17.5t-22 -7.5q-19 0 -27 6.5t-22 17.5l-84 74z" />
    <glyph glyph-name="udieresis" unicode="&#xfc;" horiz-adv-x="587" 
d="M462 535q26 0 43 -17.5t17 -43.5v-254q0 -106 -59 -168t-170 -62t-169.5 62t-58.5 168v254q0 26 17 43.5t43 17.5t43 -17.5t17 -43.5v-254q0 -61 27 -90.5t81 -29.5q55 0 82 29.5t27 90.5v254q0 26 17 43.5t43 17.5zM391 600q-31 0 -45 11.5t-14 38.5v18q0 29 15.5 39.5
t45.5 10.5q33 0 47.5 -11t14.5 -39v-18q0 -30 -15 -40t-49 -10zM192 600q-31 0 -45 11.5t-14 38.5v18q0 28 15 39t44 11q35 0 49.5 -10.5t14.5 -39.5v-18q0 -30 -15 -40t-49 -10z" />
    <glyph glyph-name="yacute" unicode="&#xfd;" horiz-adv-x="587" 
d="M462 535q26 0 43 -17.5t17 -43.5v-425q0 -92 -34.5 -146.5t-92.5 -78.5t-130 -24q-32 0 -68 5t-59 15q-30 13 -41.5 32.5t-4.5 41.5q9 29 29 39.5t42 2.5q16 -5 42 -15.5t60 -10.5q46 0 76.5 12.5t46 42t15.5 80.5v67l21 -24q-17 -33 -42.5 -54.5t-60.5 -32.5t-80 -11
q-53 0 -92.5 24.5t-61.5 68t-22 99.5v292q0 26 17 43.5t43 17.5t43 -17.5t17 -43.5v-256q0 -65 28.5 -91.5t79.5 -26.5q35 0 59 13.5t37 40t13 64.5v256q0 26 17 43.5t43 17.5zM299 569q-8 0 -20.5 8.5t-11.5 24.5q0 9 6 19l58 102q9 16 23 28t32 12q28 0 41 -14.5t12 -35.5
q-1 -10 -5.5 -21t-13.5 -22l-76 -84q-10 -11 -22 -14t-23 -3z" />
    <glyph glyph-name="thorn" unicode="&#xfe;" horiz-adv-x="628" 
d="M342 545q70 0 125.5 -35.5t88 -97.5t32.5 -144t-32.5 -144.5t-87 -98t-122.5 -35.5q-40 0 -75 13t-61.5 33t-41 40.5t-14.5 34.5l31 13v-263q0 -26 -17 -43.5t-43 -17.5t-43 17t-17 44v818q0 26 17 43.5t43 17.5t43 -17.5t17 -43.5v-254l-17 9q0 13 14 31.5t38 37
t55.5 30.5t66.5 12zM327 435q-44 0 -77 -22t-51.5 -59.5t-18.5 -85.5q0 -47 18.5 -85.5t51.5 -60.5t77 -22t76.5 22t51 60.5t18.5 85.5q0 48 -18.5 85.5t-51 59.5t-76.5 22z" />
    <glyph glyph-name="ydieresis" unicode="&#xff;" horiz-adv-x="587" 
d="M462 535q26 0 43 -17.5t17 -43.5v-425q0 -92 -34.5 -146.5t-92.5 -78.5t-130 -24q-32 0 -68 5t-59 15q-30 13 -41.5 32.5t-4.5 41.5q9 29 29 39.5t42 2.5q16 -5 42 -15.5t60 -10.5q46 0 76.5 12.5t46 42t15.5 80.5v67l21 -24q-17 -33 -42.5 -54.5t-60.5 -32.5t-80 -11
q-53 0 -92.5 24.5t-61.5 68t-22 99.5v292q0 26 17 43.5t43 17.5t43 -17.5t17 -43.5v-256q0 -65 28.5 -91.5t79.5 -26.5q35 0 59 13.5t37 40t13 64.5v256q0 26 17 43.5t43 17.5zM391 600q-31 0 -45 11.5t-14 38.5v18q0 29 15.5 39.5t45.5 10.5q33 0 47.5 -11t14.5 -39v-18
q0 -30 -15 -40t-49 -10zM192 600q-31 0 -45 11.5t-14 38.5v18q0 28 15 39t44 11q35 0 49.5 -10.5t14.5 -39.5v-18q0 -30 -15 -40t-49 -10z" />
    <glyph glyph-name="Amacron" unicode="&#x100;" horiz-adv-x="639" 
d="M332 543l-216 -508q-7 -19 -21.5 -29.5t-31.5 -10.5q-27 0 -40 15t-13 37q0 9 3 19l249 598q8 20 24.5 31t35.5 9q18 0 33.5 -10.5t22.5 -29.5l246 -586q5 -13 5 -24q0 -27 -17.5 -43t-38.5 -16q-18 0 -32.5 11t-22.5 30l-215 501zM147 157l55 115h270l19 -115h-344z
M201 750q-50 0 -50 45q0 44 50 44h242q50 0 50 -44q0 -45 -50 -45h-242z" />
    <glyph glyph-name="amacron" unicode="&#x101;" horiz-adv-x="628" 
d="M503 545q26 0 43 -17t17 -44v-423q0 -26 -17 -43.5t-43 -17.5t-43 17.5t-17 43.5v49l22 -9q0 -13 -14 -31.5t-38 -36.5t-56.5 -30.5t-70.5 -12.5q-69 0 -125 35.5t-88.5 98t-32.5 143.5q0 82 32.5 144.5t87.5 98t122 35.5q43 0 79 -13t62.5 -33t41 -40.5t14.5 -34.5
l-36 -13v73q0 26 17 43.5t43 17.5zM301 100q44 0 77 22t51.5 60t18.5 85q0 48 -18.5 86t-51.5 60t-77 22q-43 0 -76 -22t-51.5 -60t-18.5 -86q0 -47 18.5 -85t51.5 -60t76 -22zM186 600q-50 0 -50 45q0 44 50 44h242q50 0 50 -44q0 -45 -50 -45h-242z" />
    <glyph glyph-name="Abreve" unicode="&#x102;" horiz-adv-x="639" 
d="M332 543l-216 -508q-7 -19 -21.5 -29.5t-31.5 -10.5q-27 0 -40 15t-13 37q0 9 3 19l249 598q8 20 24.5 31t35.5 9q18 0 33.5 -10.5t22.5 -29.5l246 -586q5 -13 5 -24q0 -27 -17.5 -43t-38.5 -16q-18 0 -32.5 11t-22.5 30l-215 501zM147 157l55 115h270l19 -115h-344z
M322 758q-56 0 -97.5 24.5t-60.5 68.5q-10 25 0 40t29 15q21 0 33.5 -9.5t26.5 -26.5q11 -13 27.5 -20t41.5 -7q48 0 69 27q14 17 26.5 26.5t33.5 9.5q20 0 30 -14.5t0 -38.5q-19 -46 -60.5 -70.5t-98.5 -24.5z" />
    <glyph glyph-name="abreve" unicode="&#x103;" horiz-adv-x="628" 
d="M503 545q26 0 43 -17t17 -44v-423q0 -26 -17 -43.5t-43 -17.5t-43 17.5t-17 43.5v49l22 -9q0 -13 -14 -31.5t-38 -36.5t-56.5 -30.5t-70.5 -12.5q-69 0 -125 35.5t-88.5 98t-32.5 143.5q0 82 32.5 144.5t87.5 98t122 35.5q43 0 79 -13t62.5 -33t41 -40.5t14.5 -34.5
l-36 -13v73q0 26 17 43.5t43 17.5zM301 100q44 0 77 22t51.5 60t18.5 85q0 48 -18.5 86t-51.5 60t-77 22q-43 0 -76 -22t-51.5 -60t-18.5 -86q0 -47 18.5 -85t51.5 -60t76 -22zM307 570q-37 0 -68.5 10.5t-54.5 31.5t-35 51q-10 25 0 40t29 15q21 0 34 -9.5t26 -26.5
q11 -13 27.5 -20t41.5 -7t41.5 7t27.5 20q14 17 26.5 26.5t33.5 9.5q20 0 30 -14.5t0 -38.5q-12 -30 -35 -51.5t-54.5 -32.5t-69.5 -11z" />
    <glyph glyph-name="Aogonek" unicode="&#x104;" horiz-adv-x="643" 
d="M526 -207q-49 0 -84.5 26t-35.5 81q0 41 18 68.5t46 45.5t60 29.5t59 19.5l-5 -42l-54 -12l-227 528l29 6l-216 -508q-7 -19 -21.5 -29.5t-31.5 -10.5q-30 0 -41 12.5t-11 37.5q0 13 4 24l247 595q8 20 24.5 31t35.5 9q18 0 33.5 -10.5t22.5 -29.5l257 -612q4 -8 4 -17
q0 -10 -6 -21t-22 -16q-45 -13 -74.5 -32.5t-29.5 -44.5q0 -19 9.5 -27t19.5 -8q12 0 21 12t21.5 15t19.5 3q18 0 31 -12.5t13 -35.5q0 -16 -16.5 -33.5t-43 -29.5t-56.5 -12zM166 157l36 115h270l19 -115h-325z" />
    <glyph glyph-name="aogonek" unicode="&#x105;" horiz-adv-x="628" 
d="M301 100q44 0 77 22t51.5 60t18.5 85q0 48 -18.5 86t-51.5 60t-77 22q-43 0 -76 -22t-51.5 -60t-18.5 -86q0 -47 18.5 -85t51.5 -60t76 -22zM451 -217q-49 0 -84.5 26t-35.5 81q0 41 17 68.5t44.5 45.5t59.5 29.5t62 19.5l-71 -55v112l22 -9q0 -13 -14 -31.5t-38 -36.5
t-56.5 -30.5t-70.5 -12.5q-69 0 -125 35.5t-88.5 98t-32.5 143.5q0 82 32.5 144.5t87.5 98t122 35.5q43 0 79 -13t62.5 -33t41 -40.5t14.5 -34.5l-36 -13v73q0 26 17 43.5t43 17.5t43 -17t17 -44v-459q0 -10 -5.5 -21t-21.5 -16q-45 -13 -75.5 -32t-30.5 -44q0 -18 9.5 -27
t21.5 -9q6 0 11.5 3t9.5 9q9 12 21.5 15t19.5 3q18 0 31 -12.5t13 -35.5q0 -16 -16.5 -33.5t-43 -29.5t-56.5 -12z" />
    <glyph glyph-name="Cacute" unicode="&#x106;" horiz-adv-x="627" 
d="M565 666q26 -13 30.5 -41t-14.5 -51q-13 -18 -33.5 -20t-41.5 8q-24 11 -50.5 17t-55.5 6q-54 0 -96.5 -17t-72.5 -48.5t-45.5 -74.5t-15.5 -95q0 -61 17.5 -106t48.5 -75t73 -44.5t91 -14.5q27 0 54 5t52 18q21 10 41.5 7t34.5 -21q20 -25 14.5 -51.5t-30.5 -38.5
q-26 -13 -53.5 -21.5t-55.5 -13t-57 -4.5q-72 0 -136.5 23t-115 68t-79.5 112.5t-29 156.5q0 77 26.5 142t75 112.5t114.5 74t144 26.5q44 0 86 -10t79 -29zM365 738q-19 0 -30.5 10t-11.5 26q0 7 3.5 13.5t10.5 13.5l86 76q11 9 23.5 15.5t25.5 6.5q17 0 35 -13t18 -36
q0 -15 -9.5 -29.5t-27.5 -23.5l-100 -53q-6 -4 -12 -5t-11 -1z" />
    <glyph glyph-name="cacute" unicode="&#x107;" horiz-adv-x="520" 
d="M303 545q57 0 99.5 -12t66 -33.5t23.5 -51.5q0 -20 -12 -37.5t-35 -17.5q-16 0 -26.5 4.5t-18.5 11.5t-19 13q-10 6 -30.5 9.5t-30.5 3.5q-51 0 -86.5 -22t-54.5 -59.5t-19 -86.5q0 -48 19.5 -85.5t54 -59.5t79.5 -22q25 0 43 3t30 9q14 8 25 17t33 9q26 0 40 -16.5
t14 -40.5q0 -25 -28 -45.5t-73.5 -33t-98.5 -12.5q-79 0 -137 36.5t-89.5 99.5t-31.5 141q0 82 33.5 144.5t93 98t136.5 35.5zM308 569q-8 0 -20.5 8.5t-11.5 24.5q0 9 6 19l58 102q9 16 23 28t32 12q28 0 41 -14.5t12 -35.5q-1 -10 -5.5 -21t-13.5 -22l-76 -84
q-10 -11 -22 -14t-23 -3z" />
    <glyph glyph-name="Ccircumflex" unicode="&#x108;" horiz-adv-x="627" 
d="M565 666q26 -13 30.5 -41t-14.5 -51q-13 -18 -33.5 -20t-41.5 8q-24 11 -50.5 17t-55.5 6q-54 0 -96.5 -17t-72.5 -48.5t-45.5 -74.5t-15.5 -95q0 -61 17.5 -106t48.5 -75t73 -44.5t91 -14.5q27 0 54 5t52 18q21 10 41.5 7t34.5 -21q20 -25 14.5 -51.5t-30.5 -38.5
q-26 -13 -53.5 -21.5t-55.5 -13t-57 -4.5q-72 0 -136.5 23t-115 68t-79.5 112.5t-29 156.5q0 77 26.5 142t75 112.5t114.5 74t144 26.5q44 0 86 -10t79 -29zM382 811l-84 -49q-17 -10 -29 -16t-22 -6q-13 0 -22 8t-9 17q0 8 3 14t12 16l63 72q13 14 27 21.5t34 7.5h16
q20 0 34 -7.5t27 -21.5l63 -72q9 -10 12 -16t3 -14q0 -9 -8.5 -17t-22.5 -8q-10 0 -22 6t-29 16l-84 49h38z" />
    <glyph glyph-name="ccircumflex" unicode="&#x109;" horiz-adv-x="520" 
d="M303 545q57 0 99.5 -12t66 -33.5t23.5 -51.5q0 -20 -12 -37.5t-35 -17.5q-16 0 -26.5 4.5t-18.5 11.5t-19 13q-10 6 -30.5 9.5t-30.5 3.5q-51 0 -86.5 -22t-54.5 -59.5t-19 -86.5q0 -48 19.5 -85.5t54 -59.5t79.5 -22q25 0 43 3t30 9q14 8 25 17t33 9q26 0 40 -16.5
t14 -40.5q0 -25 -28 -45.5t-73.5 -33t-98.5 -12.5q-79 0 -137 36.5t-89.5 99.5t-31.5 141q0 82 33.5 144.5t93 98t136.5 35.5zM325 687l-77 -64q-13 -11 -21.5 -17.5t-27.5 -6.5q-13 0 -21.5 7.5t-8.5 17.5q0 8 2 14.5t10 16.5l49 62q23 29 61 29h36q20 0 31.5 -6t22.5 -23
l44 -62q8 -10 10 -16.5t2 -14.5q0 -10 -8 -17.5t-22 -7.5q-19 0 -27 6.5t-22 17.5l-84 74z" />
    <glyph glyph-name="Cdotaccent" unicode="&#x10a;" horiz-adv-x="627" 
d="M565 666q26 -13 30.5 -41t-14.5 -51q-13 -18 -33.5 -20t-41.5 8q-24 11 -50.5 17t-55.5 6q-54 0 -96.5 -17t-72.5 -48.5t-45.5 -74.5t-15.5 -95q0 -61 17.5 -106t48.5 -75t73 -44.5t91 -14.5q27 0 54 5t52 18q21 10 41.5 7t34.5 -21q20 -25 14.5 -51.5t-30.5 -38.5
q-26 -13 -53.5 -21.5t-55.5 -13t-57 -4.5q-72 0 -136.5 23t-115 68t-79.5 112.5t-29 156.5q0 77 26.5 142t75 112.5t114.5 74t144 26.5q44 0 86 -10t79 -29zM362 740q-33 0 -47 11t-14 39v19q0 29 15.5 39.5t46.5 10.5q36 0 50 -10.5t14 -39.5v-19q0 -29 -15 -39.5
t-50 -10.5z" />
    <glyph glyph-name="cdotaccent" unicode="&#x10b;" horiz-adv-x="520" 
d="M303 545q57 0 99.5 -12t66 -33.5t23.5 -51.5q0 -20 -12 -37.5t-35 -17.5q-16 0 -26.5 4.5t-18.5 11.5t-19 13q-10 6 -30.5 9.5t-30.5 3.5q-51 0 -86.5 -22t-54.5 -59.5t-19 -86.5q0 -48 19.5 -85.5t54 -59.5t79.5 -22q25 0 43 3t30 9q14 8 25 17t33 9q26 0 40 -16.5
t14 -40.5q0 -25 -28 -45.5t-73.5 -33t-98.5 -12.5q-79 0 -137 36.5t-89.5 99.5t-31.5 141q0 82 33.5 144.5t93 98t136.5 35.5zM302 600q-34 0 -48 11t-14 39v19q0 29 15.5 39.5t47.5 10.5q35 0 49 -11t14 -39v-19q0 -29 -15 -39.5t-49 -10.5z" />
    <glyph glyph-name="Ccaron" unicode="&#x10c;" horiz-adv-x="627" 
d="M565 666q26 -13 30.5 -41t-14.5 -51q-13 -18 -33.5 -20t-41.5 8q-24 11 -50.5 17t-55.5 6q-54 0 -96.5 -17t-72.5 -48.5t-45.5 -74.5t-15.5 -95q0 -61 17.5 -106t48.5 -75t73 -44.5t91 -14.5q27 0 54 5t52 18q21 10 41.5 7t34.5 -21q20 -25 14.5 -51.5t-30.5 -38.5
q-26 -13 -53.5 -21.5t-55.5 -13t-57 -4.5q-72 0 -136.5 23t-115 68t-79.5 112.5t-29 156.5q0 77 26.5 142t75 112.5t114.5 74t144 26.5q44 0 86 -10t79 -29zM346 822l84 54q17 11 29 15.5t22 4.5q14 0 22.5 -8t8.5 -17q0 -7 -3 -13t-12 -17l-63 -72q-13 -14 -27 -21.5
t-34 -7.5h-16q-20 0 -34 7.5t-27 21.5l-63 72q-9 11 -12 17t-3 13q0 9 9 17t22 8q20 0 51 -20l84 -54h-38z" />
    <glyph glyph-name="ccaron" unicode="&#x10d;" horiz-adv-x="520" 
d="M303 545q57 0 99.5 -12t66 -33.5t23.5 -51.5q0 -20 -12 -37.5t-35 -17.5q-16 0 -26.5 4.5t-18.5 11.5t-19 13q-10 6 -30.5 9.5t-30.5 3.5q-51 0 -86.5 -22t-54.5 -59.5t-19 -86.5q0 -48 19.5 -85.5t54 -59.5t79.5 -22q25 0 43 3t30 9q14 8 25 17t33 9q26 0 40 -16.5
t14 -40.5q0 -25 -28 -45.5t-73.5 -33t-98.5 -12.5q-79 0 -137 36.5t-89.5 99.5t-31.5 141q0 82 33.5 144.5t93 98t136.5 35.5zM283 600q-38 0 -61 30l-44 55q-12 16 -12 32q0 13 10.5 21t30.5 8q18 0 45 -23l65 -56l-26 3l61 53q14 12 25 17.5t30 5.5q14 0 23.5 -7.5
t9.5 -18.5q0 -7 -3.5 -15.5t-12.5 -19.5l-44 -55q-23 -30 -61 -30h-36z" />
    <glyph glyph-name="Dcaron" unicode="&#x10e;" horiz-adv-x="715" 
d="M375 700q72 0 128 -27t94.5 -75.5t58 -112t19.5 -135.5q0 -97 -35 -176.5t-101.5 -126.5t-163.5 -47h-239q-26 0 -43.5 17.5t-17.5 43.5v578q0 26 17.5 43.5t43.5 17.5h239zM365 115q63 0 103 32.5t58.5 86t18.5 116.5q0 47 -10.5 89.5t-32.5 75t-56 51.5t-81 19h-175
l10 9v-490l-6 11h171zM290 822l84 54q17 11 29 15.5t22 4.5q14 0 22.5 -8t8.5 -17q0 -7 -3 -13t-12 -17l-63 -72q-13 -14 -27 -21.5t-34 -7.5h-16q-20 0 -34 7.5t-27 21.5l-63 72q-9 11 -12 17t-3 13q0 9 9 17t22 8q20 0 51 -20l84 -54h-38z" />
    <glyph glyph-name="dcaron" unicode="&#x10f;" horiz-adv-x="708" 
d="M503 740q26 0 43 -17t17 -44v-618q0 -26 -17 -43.5t-43 -17.5t-43 17.5t-17 43.5v49l22 -9q0 -13 -14 -31.5t-38 -36.5t-56.5 -30.5t-70.5 -12.5q-69 0 -125 35.5t-88.5 98t-32.5 143.5q0 82 32.5 144.5t87.5 98t122 35.5q43 0 79 -13t62.5 -33t41 -40.5t14.5 -34.5
l-36 -13v268q0 26 17 43.5t43 17.5zM301 100q44 0 77 22t51.5 60t18.5 85q0 48 -18.5 86t-51.5 60t-77 22q-43 0 -76 -22t-51.5 -60t-18.5 -86q0 -47 18.5 -85t51.5 -60t76 -22zM786 646q0 -33 -18.5 -66.5t-48 -56t-62.5 -22.5q-11 0 -23.5 9t-12.5 31q0 23 14.5 27.5
t24.5 9.5q13 7 20.5 16.5t7.5 23.5q0 11 -10.5 19.5t-27.5 8.5q-6 0 -14 -1.5t-14 -5.5q-10 5 -17.5 12.5t-7.5 24.5q0 31 28.5 53.5t66.5 22.5q43 0 68.5 -29t25.5 -77z" />
    <glyph glyph-name="Dcroat" unicode="&#x110;" horiz-adv-x="715" 
d="M375 700q72 0 128 -27t94.5 -75.5t58 -112t19.5 -135.5q0 -97 -35 -176.5t-101.5 -126.5t-163.5 -47h-239q-26 0 -43.5 17.5t-17.5 43.5v578q0 26 17.5 43.5t43.5 17.5h239zM365 115q63 0 103 32.5t58.5 86t18.5 116.5q0 47 -10.5 89.5t-32.5 75t-56 51.5t-81 19h-175
l10 9v-490l-6 11h171zM57 297q-26 0 -43.5 15.5t-17.5 40.5q0 23 17.5 38.5t43.5 15.5h174q26 0 43.5 -15.5t17.5 -38.5q0 -25 -17.5 -40.5t-43.5 -15.5h-174z" />
    <glyph glyph-name="dcroat" unicode="&#x111;" horiz-adv-x="628" 
d="M503 740q26 0 43 -17t17 -44v-618q0 -26 -17 -43.5t-43 -17.5t-43 17.5t-17 43.5v49l22 -9q0 -13 -14 -31.5t-38 -36.5t-56.5 -30.5t-70.5 -12.5q-69 0 -125 35.5t-88.5 98t-32.5 143.5q0 82 32.5 144.5t87.5 98t122 35.5q43 0 79 -13t62.5 -33t41 -40.5t14.5 -34.5
l-36 -13v268q0 26 17 43.5t43 17.5zM301 100q44 0 77 22t51.5 60t18.5 85q0 48 -18.5 86t-51.5 60t-77 22q-43 0 -76 -22t-51.5 -60t-18.5 -86q0 -47 18.5 -85t51.5 -60t76 -22zM403 561q-26 0 -43.5 15.5t-17.5 40.5q0 23 17.5 38.5t43.5 15.5h174q26 0 43.5 -15.5
t17.5 -38.5q0 -25 -17.5 -40.5t-43.5 -15.5h-174z" />
    <glyph glyph-name="Emacron" unicode="&#x112;" horiz-adv-x="572" 
d="M136 700h335q26 0 43.5 -16.5t17.5 -42.5q0 -25 -17.5 -40.5t-43.5 -15.5h-280l9 17v-195l-8 8h234q26 0 43.5 -16.5t17.5 -42.5q0 -25 -17.5 -40.5t-43.5 -15.5h-231l5 8v-202l-8 9h279q26 0 43.5 -17.5t17.5 -40.5q0 -25 -17.5 -41t-43.5 -16h-335q-26 0 -43.5 17.5
t-17.5 43.5v578q0 26 17.5 43.5t43.5 17.5zM185 750q-50 0 -50 45q0 44 50 44h242q50 0 50 -44q0 -45 -50 -45h-242z" />
    <glyph glyph-name="emacron" unicode="&#x113;" horiz-adv-x="590" 
d="M317 -10q-85 0 -147.5 35.5t-96 96.5t-33.5 138q0 90 36.5 153.5t95.5 97.5t125 34q51 0 96.5 -21t80.5 -57.5t55.5 -84.5t20.5 -102q-1 -24 -19 -39t-42 -15h-382l-30 100h367l-22 -20v27q-2 29 -20.5 52t-46 36.5t-58.5 13.5q-30 0 -56 -8t-45 -27t-30 -51t-11 -81
q0 -54 22.5 -91.5t58 -57t75.5 -19.5q37 0 59 6t35.5 14.5t24.5 14.5q18 9 34 9q22 0 36.5 -15t14.5 -35q0 -27 -28 -49q-26 -22 -73 -38.5t-97 -16.5zM172 600q-50 0 -50 45q0 44 50 44h242q50 0 50 -44q0 -45 -50 -45h-242z" />
    <glyph glyph-name="Ebreve" unicode="&#x114;" horiz-adv-x="572" 
d="M136 700h335q26 0 43.5 -16.5t17.5 -42.5q0 -25 -17.5 -40.5t-43.5 -15.5h-280l9 17v-195l-8 8h234q26 0 43.5 -16.5t17.5 -42.5q0 -25 -17.5 -40.5t-43.5 -15.5h-231l5 8v-202l-8 9h279q26 0 43.5 -17.5t17.5 -40.5q0 -25 -17.5 -41t-43.5 -16h-335q-26 0 -43.5 17.5
t-17.5 43.5v578q0 26 17.5 43.5t43.5 17.5zM306 758q-56 0 -97.5 24.5t-60.5 68.5q-10 25 0 40t29 15q21 0 33.5 -9.5t26.5 -26.5q11 -13 27.5 -20t41.5 -7q48 0 69 27q14 17 26.5 26.5t33.5 9.5q20 0 30 -14.5t0 -38.5q-19 -46 -60.5 -70.5t-98.5 -24.5z" />
    <glyph glyph-name="ebreve" unicode="&#x115;" horiz-adv-x="590" 
d="M317 -10q-85 0 -147.5 35.5t-96 96.5t-33.5 138q0 90 36.5 153.5t95.5 97.5t125 34q51 0 96.5 -21t80.5 -57.5t55.5 -84.5t20.5 -102q-1 -24 -19 -39t-42 -15h-382l-30 100h367l-22 -20v27q-2 29 -20.5 52t-46 36.5t-58.5 13.5q-30 0 -56 -8t-45 -27t-30 -51t-11 -81
q0 -54 22.5 -91.5t58 -57t75.5 -19.5q37 0 59 6t35.5 14.5t24.5 14.5q18 9 34 9q22 0 36.5 -15t14.5 -35q0 -27 -28 -49q-26 -22 -73 -38.5t-97 -16.5zM293 570q-37 0 -68.5 10.5t-54.5 31.5t-35 51q-10 25 0 40t29 15q21 0 34 -9.5t26 -26.5q11 -13 27.5 -20t41.5 -7
t41.5 7t27.5 20q14 17 26.5 26.5t33.5 9.5q20 0 30 -14.5t0 -38.5q-12 -30 -35 -51.5t-54.5 -32.5t-69.5 -11z" />
    <glyph glyph-name="Edotaccent" unicode="&#x116;" horiz-adv-x="572" 
d="M136 700h335q26 0 43.5 -16.5t17.5 -42.5q0 -25 -17.5 -40.5t-43.5 -15.5h-280l9 17v-195l-8 8h234q26 0 43.5 -16.5t17.5 -42.5q0 -25 -17.5 -40.5t-43.5 -15.5h-231l5 8v-202l-8 9h279q26 0 43.5 -17.5t17.5 -40.5q0 -25 -17.5 -41t-43.5 -16h-335q-26 0 -43.5 17.5
t-17.5 43.5v578q0 26 17.5 43.5t43.5 17.5zM304 740q-33 0 -47 11t-14 39v19q0 29 15.5 39.5t46.5 10.5q36 0 50 -10.5t14 -39.5v-19q0 -29 -15 -39.5t-50 -10.5z" />
    <glyph glyph-name="edotaccent" unicode="&#x117;" horiz-adv-x="590" 
d="M317 -10q-85 0 -147.5 35.5t-96 96.5t-33.5 138q0 90 36.5 153.5t95.5 97.5t125 34q51 0 96.5 -21t80.5 -57.5t55.5 -84.5t20.5 -102q-1 -24 -19 -39t-42 -15h-382l-30 100h367l-22 -20v27q-2 29 -20.5 52t-46 36.5t-58.5 13.5q-30 0 -56 -8t-45 -27t-30 -51t-11 -81
q0 -54 22.5 -91.5t58 -57t75.5 -19.5q37 0 59 6t35.5 14.5t24.5 14.5q18 9 34 9q22 0 36.5 -15t14.5 -35q0 -27 -28 -49q-26 -22 -73 -38.5t-97 -16.5zM292 600q-34 0 -48 11t-14 39v19q0 29 15.5 39.5t47.5 10.5q35 0 49 -11t14 -39v-19q0 -29 -15 -39.5t-49 -10.5z" />
    <glyph glyph-name="Eogonek" unicode="&#x118;" horiz-adv-x="572" 
d="M392 -207q-49 0 -84.5 26t-35.5 81q0 34 18.5 59.5t48 44.5t63 31.5t63.5 20.5l-8 -56h-321q-26 0 -43.5 17.5t-17.5 43.5v578q0 26 17.5 43.5t43.5 17.5h335q26 0 43.5 -16.5t17.5 -42.5q0 -21 -17.5 -38t-43.5 -17h-280l9 17v-196l-8 8h234q26 0 43.5 -16.5t17.5 -42.5
q0 -20 -17.5 -38t-43.5 -18h-231l5 8v-202l-8 9h279q26 0 43.5 -15.5t17.5 -42.5q0 -25 -16.5 -38t-42.5 -19q-30 -7 -53 -19t-36 -27t-13 -32q0 -18 9.5 -27t21.5 -9t21 12t21.5 15t19.5 3q18 0 31 -12.5t13 -35.5q0 -16 -16.5 -33.5t-43 -29.5t-56.5 -12z" />
    <glyph glyph-name="eogonek" unicode="&#x119;" horiz-adv-x="590" 
d="M416 -207q-33 0 -60 11.5t-43.5 35t-16.5 60.5q0 41 17 68.5t44.5 45.5t59.5 29.5t62 19.5l-81 -61q-19 -5 -40 -8.5t-41 -3.5q-85 0 -147.5 35.5t-96 96.5t-33.5 138q0 90 36.5 153.5t95.5 97.5t125 34q51 0 96.5 -21t80.5 -57.5t55.5 -84.5t20.5 -102q-1 -24 -19 -39
t-42 -15h-382l-30 100h370l-25 -21v28q-2 29 -20.5 52t-46 36.5t-58.5 13.5q-40 0 -72 -14.5t-51 -51t-19 -101.5q0 -54 22.5 -91.5t58 -57t75.5 -19.5q37 0 59 6t35.5 14.5t24.5 14.5q18 10 34 10q26 0 40 -19t14 -36q0 -10 -5.5 -22t-23.5 -24q-25 -17 -46.5 -36
t-34.5 -40.5t-13 -45.5q0 -18 9.5 -27t21.5 -9t21 12t21.5 15t19.5 3q18 0 31 -12.5t13 -35.5q0 -16 -16.5 -33.5t-43 -29.5t-56.5 -12z" />
    <glyph glyph-name="Ecaron" unicode="&#x11a;" horiz-adv-x="572" 
d="M136 700h335q26 0 43.5 -16.5t17.5 -42.5q0 -25 -17.5 -40.5t-43.5 -15.5h-280l9 17v-195l-8 8h234q26 0 43.5 -16.5t17.5 -42.5q0 -25 -17.5 -40.5t-43.5 -15.5h-231l5 8v-202l-8 9h279q26 0 43.5 -17.5t17.5 -40.5q0 -25 -17.5 -41t-43.5 -16h-335q-26 0 -43.5 17.5
t-17.5 43.5v578q0 26 17.5 43.5t43.5 17.5zM288 822l84 54q17 11 29 15.5t22 4.5q14 0 22.5 -8t8.5 -17q0 -7 -3 -13t-12 -17l-63 -72q-13 -14 -27 -21.5t-34 -7.5h-16q-20 0 -34 7.5t-27 21.5l-63 72q-9 11 -12 17t-3 13q0 9 9 17t22 8q20 0 51 -20l84 -54h-38z" />
    <glyph glyph-name="ecaron" unicode="&#x11b;" horiz-adv-x="590" 
d="M317 -10q-85 0 -147.5 35.5t-96 96.5t-33.5 138q0 90 36.5 153.5t95.5 97.5t125 34q51 0 96.5 -21t80.5 -57.5t55.5 -84.5t20.5 -102q-1 -24 -19 -39t-42 -15h-382l-30 100h367l-22 -20v27q-2 29 -20.5 52t-46 36.5t-58.5 13.5q-30 0 -56 -8t-45 -27t-30 -51t-11 -81
q0 -54 22.5 -91.5t58 -57t75.5 -19.5q37 0 59 6t35.5 14.5t24.5 14.5q18 9 34 9q22 0 36.5 -15t14.5 -35q0 -27 -28 -49q-26 -22 -73 -38.5t-97 -16.5zM273 600q-38 0 -61 30l-44 55q-12 16 -12 32q0 13 10.5 21t30.5 8q18 0 45 -23l65 -56l-26 3l61 53q14 12 25 17.5
t30 5.5q14 0 23.5 -7.5t9.5 -18.5q0 -7 -3.5 -15.5t-12.5 -19.5l-44 -55q-23 -30 -61 -30h-36z" />
    <glyph glyph-name="Gcircumflex" unicode="&#x11c;" horiz-adv-x="696" 
d="M405 -10q-76 0 -142 28t-116 77.5t-78.5 114.5t-28.5 140t28.5 140t78.5 114.5t116 77.5t142 28q47 0 91 -10t81 -30q15 -8 22.5 -21.5t7.5 -27.5q0 -24 -16 -43t-41 -19q-8 0 -16.5 2t-16.5 6q-25 11 -53 17t-59 6q-65 0 -118.5 -32.5t-85 -87t-31.5 -120.5
q0 -65 31.5 -120t85 -87.5t118.5 -32.5q30 0 66 6t59 16l-9 -30v171l17 -15h-111q-26 0 -43.5 17t-17.5 43t17.5 43t43.5 17h164q26 0 43 -17.5t17 -43.5v-212q0 -20 -9.5 -33t-21.5 -21q-46 -28 -100.5 -44.5t-114.5 -16.5zM406 811l-84 -49q-17 -10 -29 -16t-22 -6
q-13 0 -22 8t-9 17q0 8 3 14t12 16l63 72q13 14 27 21.5t34 7.5h16q20 0 34 -7.5t27 -21.5l63 -72q9 -10 12 -16t3 -14q0 -9 -8.5 -17t-22.5 -8q-10 0 -22 6t-29 16l-84 49h38z" />
    <glyph glyph-name="gcircumflex" unicode="&#x11d;" horiz-adv-x="638" 
d="M287 545q42 0 77 -13t60.5 -33t40 -40.5t14.5 -34.5l-26 -13v73q0 26 17 43.5t43 17.5t43 -17t17 -44v-445q0 -87 -37.5 -139.5t-98.5 -76t-131 -23.5q-20 0 -52 5t-61 12t-44 13q-30 13 -41.5 32.5t-4.5 41.5q9 29 29 39.5t42 2.5q10 -3 33 -12t50.5 -16.5t48.5 -7.5
q75 0 111 30t36 83v87l12 -9q0 -13 -13.5 -31.5t-37 -36.5t-55.5 -30.5t-68 -12.5q-71 0 -128 35.5t-90 98t-33 143.5q0 82 33 144.5t89 98t125 35.5zM306 435q-45 0 -79 -22t-53 -60t-19 -86q0 -47 19 -85t53 -60t79 -22q46 0 80 22t53 60t19 85q0 48 -19 86t-53 60t-80 22
zM344 687l-77 -64q-13 -11 -21.5 -17.5t-27.5 -6.5q-13 0 -21.5 7.5t-8.5 17.5q0 8 2 14.5t10 16.5l49 62q23 29 61 29h36q20 0 31.5 -6t22.5 -23l44 -62q8 -10 10 -16.5t2 -14.5q0 -10 -8 -17.5t-22 -7.5q-19 0 -27 6.5t-22 17.5l-84 74z" />
    <glyph glyph-name="Gbreve" unicode="&#x11e;" horiz-adv-x="696" 
d="M405 -10q-76 0 -142 28t-116 77.5t-78.5 114.5t-28.5 140t28.5 140t78.5 114.5t116 77.5t142 28q47 0 91 -10t81 -30q15 -8 22.5 -21.5t7.5 -27.5q0 -24 -16 -43t-41 -19q-8 0 -16.5 2t-16.5 6q-25 11 -53 17t-59 6q-65 0 -118.5 -32.5t-85 -87t-31.5 -120.5
q0 -65 31.5 -120t85 -87.5t118.5 -32.5q30 0 66 6t59 16l-9 -30v171l17 -15h-111q-26 0 -43.5 17t-17.5 43t17.5 43t43.5 17h164q26 0 43 -17.5t17 -43.5v-212q0 -20 -9.5 -33t-21.5 -21q-46 -28 -100.5 -44.5t-114.5 -16.5zM388 758q-56 0 -97.5 24.5t-60.5 68.5
q-10 25 0 40t29 15q21 0 33.5 -9.5t26.5 -26.5q11 -13 27.5 -20t41.5 -7q48 0 69 27q14 17 26.5 26.5t33.5 9.5q20 0 30 -14.5t0 -38.5q-19 -46 -60.5 -70.5t-98.5 -24.5z" />
    <glyph glyph-name="gbreve" unicode="&#x11f;" horiz-adv-x="638" 
d="M287 545q42 0 77 -13t60.5 -33t40 -40.5t14.5 -34.5l-26 -13v73q0 26 17 43.5t43 17.5t43 -17t17 -44v-445q0 -87 -37.5 -139.5t-98.5 -76t-131 -23.5q-20 0 -52 5t-61 12t-44 13q-30 13 -41.5 32.5t-4.5 41.5q9 29 29 39.5t42 2.5q10 -3 33 -12t50.5 -16.5t48.5 -7.5
q75 0 111 30t36 83v87l12 -9q0 -13 -13.5 -31.5t-37 -36.5t-55.5 -30.5t-68 -12.5q-71 0 -128 35.5t-90 98t-33 143.5q0 82 33 144.5t89 98t125 35.5zM306 435q-45 0 -79 -22t-53 -60t-19 -86q0 -47 19 -85t53 -60t79 -22q46 0 80 22t53 60t19 85q0 48 -19 86t-53 60t-80 22
zM322 570q-37 0 -68.5 10.5t-54.5 31.5t-35 51q-10 25 0 40t29 15q21 0 34 -9.5t26 -26.5q11 -13 27.5 -20t41.5 -7t41.5 7t27.5 20q14 17 26.5 26.5t33.5 9.5q20 0 30 -14.5t0 -38.5q-12 -30 -35 -51.5t-54.5 -32.5t-69.5 -11z" />
    <glyph glyph-name="Gdotaccent" unicode="&#x120;" horiz-adv-x="696" 
d="M405 -10q-76 0 -142 28t-116 77.5t-78.5 114.5t-28.5 140t28.5 140t78.5 114.5t116 77.5t142 28q47 0 91 -10t81 -30q15 -8 22.5 -21.5t7.5 -27.5q0 -24 -16 -43t-41 -19q-8 0 -16.5 2t-16.5 6q-25 11 -53 17t-59 6q-65 0 -118.5 -32.5t-85 -87t-31.5 -120.5
q0 -65 31.5 -120t85 -87.5t118.5 -32.5q30 0 66 6t59 16l-9 -30v171l17 -15h-111q-26 0 -43.5 17t-17.5 43t17.5 43t43.5 17h164q26 0 43 -17.5t17 -43.5v-212q0 -20 -9.5 -33t-21.5 -21q-46 -28 -100.5 -44.5t-114.5 -16.5zM386 740q-33 0 -47 11t-14 39v19q0 29 15.5 39.5
t46.5 10.5q36 0 50 -10.5t14 -39.5v-19q0 -29 -15 -39.5t-50 -10.5z" />
    <glyph glyph-name="gdotaccent" unicode="&#x121;" horiz-adv-x="638" 
d="M287 545q42 0 77 -13t60.5 -33t40 -40.5t14.5 -34.5l-26 -13v73q0 26 17 43.5t43 17.5t43 -17t17 -44v-445q0 -87 -37.5 -139.5t-98.5 -76t-131 -23.5q-20 0 -52 5t-61 12t-44 13q-30 13 -41.5 32.5t-4.5 41.5q9 29 29 39.5t42 2.5q10 -3 33 -12t50.5 -16.5t48.5 -7.5
q75 0 111 30t36 83v87l12 -9q0 -13 -13.5 -31.5t-37 -36.5t-55.5 -30.5t-68 -12.5q-71 0 -128 35.5t-90 98t-33 143.5q0 82 33 144.5t89 98t125 35.5zM306 435q-45 0 -79 -22t-53 -60t-19 -86q0 -47 19 -85t53 -60t79 -22q46 0 80 22t53 60t19 85q0 48 -19 86t-53 60t-80 22
zM321 600q-34 0 -48 11t-14 39v19q0 29 15.5 39.5t47.5 10.5q35 0 49 -11t14 -39v-19q0 -29 -15 -39.5t-49 -10.5z" />
    <glyph glyph-name="uni0122" unicode="&#x122;" horiz-adv-x="696" 
d="M405 -10q-76 0 -142 28t-116 77.5t-78.5 114.5t-28.5 140t28.5 140t78.5 114.5t116 77.5t142 28q47 0 91 -10t81 -30q15 -8 22.5 -21.5t7.5 -27.5q0 -24 -16 -43t-41 -19q-8 0 -16.5 2t-16.5 6q-25 11 -53 17t-59 6q-65 0 -118.5 -32.5t-85 -87t-31.5 -120.5
q0 -65 31.5 -120t85 -87.5t118.5 -32.5q30 0 66 6t59 16l-9 -30v171l17 -15h-111q-26 0 -43.5 17t-17.5 43t17.5 43t43.5 17h164q26 0 43 -17.5t17 -43.5v-212q0 -20 -9.5 -33t-21.5 -21q-46 -28 -100.5 -44.5t-114.5 -16.5zM486 -104q0 -22 -13.5 -43.5t-36.5 -36
t-52 -14.5q-25 0 -36.5 11t-11.5 21q0 14 7 18.5t14 4.5q5 0 13.5 -2.5t16.5 -2.5q11 0 18 7.5t7 20.5t-10 13q-7 0 -10 -4.5t-17 -4.5q-16 0 -26 11t-10 30q0 24 19 35.5t49 11.5q34 0 56.5 -20t22.5 -56z" />
    <glyph glyph-name="uni0123" unicode="&#x123;" horiz-adv-x="638" 
d="M287 545q42 0 77 -13t60.5 -33t40 -40.5t14.5 -34.5l-26 -13v73q0 26 17 43.5t43 17.5t43 -17t17 -44v-445q0 -87 -37.5 -139.5t-98.5 -76t-131 -23.5q-20 0 -52 5t-61 12t-44 13q-30 13 -41.5 32.5t-4.5 41.5q9 29 29 39.5t42 2.5q10 -3 33 -12t50.5 -16.5t48.5 -7.5
q75 0 111 30t36 83v87l12 -9q0 -13 -13.5 -31.5t-37 -36.5t-55.5 -30.5t-68 -12.5q-71 0 -128 35.5t-90 98t-33 143.5q0 82 33 144.5t89 98t125 35.5zM306 435q-45 0 -79 -22t-53 -60t-19 -86q0 -47 19 -85t53 -60t79 -22q46 0 80 22t53 60t19 85q0 48 -19 86t-53 60t-80 22
zM227 690q0 34 18.5 67t48 55.5t62.5 22.5q11 0 23.5 -9t12.5 -31t-14.5 -27t-24.5 -10q-13 -7 -20.5 -16.5t-7.5 -23.5q0 -10 10.5 -19t27.5 -9q6 0 14 1.5t14 5.5q11 -4 18 -12t7 -25q0 -31 -28.5 -53.5t-66.5 -22.5q-43 0 -68.5 29t-25.5 77z" />
    <glyph glyph-name="Hcircumflex" unicode="&#x124;" horiz-adv-x="719" 
d="M139 700q24 0 42.5 -17.5t18.5 -43.5v-578q0 -26 -19 -43.5t-44 -17.5q-28 0 -45 17.5t-17 43.5v578q0 26 18 43.5t46 17.5zM582 700q28 0 45 -17.5t17 -43.5v-578q0 -26 -17.5 -43.5t-46.5 -17.5q-24 0 -42.5 17.5t-18.5 43.5v578q0 26 19 43.5t44 17.5zM136 409h446
v-115h-446v115zM378 811l-84 -49q-17 -10 -29 -16t-22 -6q-13 0 -22 8t-9 17q0 8 3 14t12 16l63 72q13 14 27 21.5t34 7.5h16q20 0 34 -7.5t27 -21.5l63 -72q9 -10 12 -16t3 -14q0 -9 -8.5 -17t-22.5 -8q-10 0 -22 6t-29 16l-84 49h38z" />
    <glyph glyph-name="hcircumflex" unicode="&#x125;" horiz-adv-x="586" 
d="M346 545q72 0 109.5 -31t51.5 -82.5t14 -114.5v-256q0 -26 -17 -43.5t-43 -17.5t-43 17.5t-17 43.5v256q0 33 -8 59.5t-29 42.5t-60 16q-38 0 -65 -16t-40.5 -42.5t-13.5 -59.5v-256q0 -26 -17 -43.5t-43 -17.5t-43 17.5t-17 43.5v618q0 26 17 43.5t43 17.5t43 -17.5
t17 -43.5v-248l-15 3q9 17 25 36.5t39 36.5t51 27.5t61 10.5zM143 851l-84 -49q-17 -10 -29 -16t-22 -6q-13 0 -22 8t-9 17q0 8 3 14t12 16l63 72q13 14 27 21.5t34 7.5h16q20 0 34 -7.5t27 -21.5l63 -72q9 -10 12 -16t3 -14q0 -9 -8.5 -17t-22.5 -8q-10 0 -22 6t-29 16
l-84 49h38z" />
    <glyph glyph-name="Hbar" unicode="&#x126;" horiz-adv-x="805" 
d="M91 490q-22 0 -36.5 14.5t-14.5 36.5q0 21 14.5 35t36.5 14h623q23 0 37 -14t14 -37q0 -21 -14 -35t-37 -14h-623zM182 700q24 0 42.5 -17.5t18.5 -43.5v-578q0 -26 -19 -43.5t-44 -17.5q-28 0 -45 17.5t-17 43.5v578q0 26 18 43.5t46 17.5zM625 700q28 0 45 -17.5
t17 -43.5v-578q0 -26 -17.5 -43.5t-46.5 -17.5q-24 0 -42.5 17.5t-18.5 43.5v578q0 26 19 43.5t44 17.5zM179 409h446v-115h-446v115z" />
    <glyph glyph-name="hbar" unicode="&#x127;" horiz-adv-x="586" 
d="M346 545q72 0 109.5 -31t51.5 -82.5t14 -114.5v-256q0 -26 -17 -43.5t-43 -17.5t-43 17.5t-17 43.5v256q0 33 -8 59.5t-29 42.5t-60 16q-38 0 -65 -16t-40.5 -42.5t-13.5 -59.5v-256q0 -26 -17 -43.5t-43 -17.5t-43 17.5t-17 43.5v618q0 26 17 43.5t43 17.5t43 -17.5
t17 -43.5v-248l-15 3q9 17 25 36.5t39 36.5t51 27.5t61 10.5zM42 541q-26 0 -43.5 15.5t-17.5 40.5q0 23 17.5 38.5t43.5 15.5h174q26 0 43.5 -15.5t17.5 -38.5q0 -25 -17.5 -40.5t-43.5 -15.5h-174z" />
    <glyph glyph-name="Itilde" unicode="&#x128;" horiz-adv-x="275" 
d="M200 61q0 -26 -19 -43.5t-44 -17.5q-28 0 -45 17.5t-17 43.5v578q0 26 18 43.5t46 17.5q24 0 42.5 -17.5t18.5 -43.5v-578zM5 736q-22 0 -38.5 19.5t-16.5 51.5t28.5 60t82.5 28q34 0 63 -15.5t53.5 -31t42.5 -15.5q11 0 17 5.5t3 15.5q-7 23 5 36t30 13q23 0 39 -19
t16 -50q0 -17 -10 -38t-31 -36.5t-54 -15.5q-37 0 -70 15.5t-60 31t-45 15.5q-10 0 -16.5 -5.5t-3.5 -15.5q7 -22 -5 -35.5t-30 -13.5z" />
    <glyph glyph-name="itilde" unicode="&#x129;" horiz-adv-x="236" 
d="M178 61q0 -26 -17 -43.5t-43 -17.5t-43 17.5t-17 43.5v413q0 26 17 43.5t43 17.5t43 -17.5t17 -43.5v-413zM-16 590q-22 0 -38.5 18t-16.5 50t30 60t93 28q26 0 47 -10t38.5 -22.5t33 -22.5t28.5 -10q11 0 17 5.5t3 15.5q-7 23 5 36t30 13q23 0 39 -17.5t16 -48.5
q0 -17 -11 -38t-36 -36.5t-67 -15.5q-21 0 -42.5 10t-42.5 22.5t-39 22.5t-32 10q-10 0 -16.5 -5.5t-3.5 -15.5q7 -22 -5 -35.5t-30 -13.5z" />
    <glyph glyph-name="Imacron" unicode="&#x12a;" horiz-adv-x="275" 
d="M200 61q0 -26 -19 -43.5t-44 -17.5q-28 0 -45 17.5t-17 43.5v578q0 26 18 43.5t46 17.5q24 0 42.5 -17.5t18.5 -43.5v-578zM19 750q-50 0 -50 45q0 44 50 44h242q50 0 50 -44q0 -45 -50 -45h-242z" />
    <glyph glyph-name="imacron" unicode="&#x12b;" horiz-adv-x="236" 
d="M178 61q0 -26 -17 -43.5t-43 -17.5t-43 17.5t-17 43.5v413q0 26 17 43.5t43 17.5t43 -17.5t17 -43.5v-413zM-3 600q-50 0 -50 45q0 44 50 44h242q50 0 50 -44q0 -45 -50 -45h-242z" />
    <glyph glyph-name="Ibreve" unicode="&#x12c;" horiz-adv-x="275" 
d="M200 61q0 -26 -19 -43.5t-44 -17.5q-28 0 -45 17.5t-17 43.5v578q0 26 18 43.5t46 17.5q24 0 42.5 -17.5t18.5 -43.5v-578zM140 758q-56 0 -97.5 24.5t-60.5 68.5q-10 25 0 40t29 15q21 0 33.5 -9.5t26.5 -26.5q11 -13 27.5 -20t41.5 -7q48 0 69 27q14 17 26.5 26.5
t33.5 9.5q20 0 30 -14.5t0 -38.5q-19 -46 -60.5 -70.5t-98.5 -24.5z" />
    <glyph glyph-name="ibreve" unicode="&#x12d;" horiz-adv-x="236" 
d="M178 61q0 -26 -17 -43.5t-43 -17.5t-43 17.5t-17 43.5v413q0 26 17 43.5t43 17.5t43 -17.5t17 -43.5v-413zM118 570q-37 0 -68.5 10.5t-54.5 31.5t-35 51q-10 25 0 40t29 15q21 0 34 -9.5t26 -26.5q11 -13 27.5 -20t41.5 -7t41.5 7t27.5 20q14 17 26.5 26.5t33.5 9.5
q20 0 30 -14.5t0 -38.5q-12 -30 -35 -51.5t-54.5 -32.5t-69.5 -11z" />
    <glyph glyph-name="Iogonek" unicode="&#x12e;" horiz-adv-x="280" 
d="M94 -207q-49 0 -84.5 26t-35.5 81q0 41 17 68.5t44.5 45.5t59.5 29.5t62 19.5l-18 -63l-64 34v605q0 26 19 43.5t47 17.5t46 -17.5t18 -43.5v-604q0 -10 -5 -21t-21 -16q-45 -13 -75.5 -32t-30.5 -44q0 -18 9.5 -27t21.5 -9q11 0 19 7.5t18 15t25 7.5q18 0 31 -12.5
t13 -35.5q0 -16 -16.5 -33.5t-43 -29.5t-56.5 -12z" />
    <glyph glyph-name="iogonek" unicode="&#x12f;" horiz-adv-x="236" 
d="M101 -207q-49 0 -84.5 26t-35.5 81q0 41 17 66t44 40.5t59.5 24.5t62.5 17l-106 -42v468q0 26 17 43.5t43 17.5t43 -17.5t17 -43.5v-410q0 -28 -10 -43.5t-24.5 -24.5t-29 -17t-24.5 -21t-10 -36q0 -18 9.5 -27t21.5 -9q6 0 11.5 3t9.5 9q9 12 21.5 15t19.5 3
q18 0 31 -12.5t13 -35.5q0 -16 -16.5 -33.5t-43 -29.5t-56.5 -12zM117 600q-34 0 -48 11t-14 39v19q0 29 15.5 39.5t47.5 10.5q35 0 49 -11t14 -39v-19q0 -29 -15 -39.5t-49 -10.5z" />
    <glyph glyph-name="Idotaccent" unicode="&#x130;" horiz-adv-x="275" 
d="M200 61q0 -26 -19 -43.5t-44 -17.5q-28 0 -45 17.5t-17 43.5v578q0 26 18 43.5t46 17.5q24 0 42.5 -17.5t18.5 -43.5v-578zM138 740q-33 0 -47 11t-14 39v19q0 29 15.5 39.5t46.5 10.5q36 0 50 -10.5t14 -39.5v-19q0 -29 -15 -39.5t-50 -10.5z" />
    <glyph glyph-name="dotlessi" unicode="&#x131;" horiz-adv-x="236" 
d="M178 61q0 -26 -17 -43.5t-43 -17.5t-43 17.5t-17 43.5v413q0 26 17 43.5t43 17.5t43 -17.5t17 -43.5v-413z" />
    <glyph glyph-name="IJ" unicode="&#x132;" horiz-adv-x="587" 
d="M206 315q0 -26 -19 -43.5t-44 -17.5q-28 0 -45 17.5t-17 43.5v324q0 26 18 43.5t46 17.5q24 0 42.5 -17.5t18.5 -43.5v-324zM273 -10q-57 0 -106 23t-80 66q-12 18 -12 35q0 25 19.5 42t38.5 17q15 0 29.5 -9t26.5 -21q20 -18 39.5 -25.5t44.5 -7.5q30 0 56 15t42 40
t16 54v420q0 26 19 43.5t44 17.5q28 0 45 -17.5t17 -43.5v-420q0 -61 -32 -113t-86 -84t-121 -32z" />
    <glyph glyph-name="ij" unicode="&#x133;" horiz-adv-x="481" 
d="M178 61q0 -26 -17 -43.5t-43 -17.5t-43 17.5t-17 43.5v413q0 26 17 43.5t43 17.5t43 -17.5t17 -43.5v-413zM117 600q-34 0 -48 11t-14 39v19q0 29 15.5 39.5t47.5 10.5q35 0 49 -11t14 -39v-19q0 -29 -15 -39.5t-49 -10.5zM406 -10q0 -57 -22 -98.5t-59 -64.5t-83 -23
q-25 0 -40.5 16.5t-15.5 39.5v11q0 22 14.5 35t36.5 20q24 8 34 22.5t12.5 34.5t2.5 42v449q0 26 17 43.5t43 17.5t43 -17.5t17 -43.5v-484zM344 600q-34 0 -48 11t-14 39v19q0 29 15.5 39.5t47.5 10.5q35 0 49 -11t14 -39v-19q0 -29 -15 -39.5t-49 -10.5z" />
    <glyph glyph-name="Jcircumflex" unicode="&#x134;" horiz-adv-x="552" 
d="M238 -10q-57 0 -106 23t-80 66q-12 18 -12 35q0 25 19.5 42t38.5 17q15 0 29.5 -9t26.5 -21q20 -18 39.5 -25.5t44.5 -7.5q30 0 56 15t42 40t16 54v420q0 26 19 43.5t44 17.5q28 0 45 -17.5t17 -43.5v-420q0 -61 -32 -113t-86 -84t-121 -32zM433 811l-84 -49
q-17 -10 -29 -16t-22 -6q-13 0 -22 8t-9 17q0 8 3 14t12 16l63 72q13 14 27 21.5t34 7.5h16q20 0 34 -7.5t27 -21.5l63 -72q9 -10 12 -16t3 -14q0 -9 -8.5 -17t-22.5 -8q-10 0 -22 6t-29 16l-84 49h38z" />
    <glyph glyph-name="jcircumflex" unicode="&#x135;" horiz-adv-x="275" 
d="M200 -10q0 -57 -22 -98.5t-59 -64.5t-83 -23q-25 0 -40.5 16.5t-15.5 39.5v11q0 22 14.5 35t36.5 20q24 8 34 22.5t12.5 34.5t2.5 42v449q0 26 17 43.5t43 17.5t43 -17.5t17 -43.5v-484zM161 687l-77 -64q-13 -11 -21.5 -17.5t-27.5 -6.5q-13 0 -21.5 7.5t-8.5 17.5
q0 8 2 14.5t10 16.5l49 62q23 29 61 29h36q20 0 31.5 -6t22.5 -23l44 -62q8 -10 10 -16.5t2 -14.5q0 -10 -8 -17.5t-22 -7.5q-19 0 -27 6.5t-22 17.5l-84 74z" />
    <glyph glyph-name="uni0136" unicode="&#x136;" horiz-adv-x="655" 
d="M557 0q-28 0 -45 23l-231 304l91 93l239 -316q14 -19 14 -41q0 -28 -21 -45.5t-47 -17.5zM569 705q24 0 39.5 -19.5t15.5 -39.5q0 -21 -18 -39l-419 -401l-5 143l338 333q23 23 49 23zM137 0q-28 0 -45 17.5t-17 43.5v578q0 26 18 43.5t46 17.5t44.5 -17.5t16.5 -43.5
v-578q0 -26 -17 -43.5t-46 -17.5zM412 -104q0 -22 -13.5 -43.5t-36.5 -36t-52 -14.5q-25 0 -36.5 11t-11.5 21q0 14 7 18.5t14 4.5q5 0 13.5 -2.5t16.5 -2.5q11 0 18 7.5t7 20.5t-10 13q-7 0 -10 -4.5t-17 -4.5q-16 0 -26 11t-10 30q0 24 19 35.5t49 11.5q34 0 56.5 -20
t22.5 -56z" />
    <glyph glyph-name="uni0137" unicode="&#x137;" horiz-adv-x="569" 
d="M135 0q-26 0 -43 17.5t-17 43.5v618q0 26 17 43.5t43 17.5t43 -17.5t17 -43.5v-618q0 -26 -17 -43.5t-43 -17.5zM453 535q23 0 40 -19t17 -37q0 -24 -24 -45l-301 -277l-5 138l229 221q19 19 44 19zM468 1q-26 0 -44 20l-185 196l91 84l180 -196q19 -20 19 -45
q0 -26 -20.5 -42.5t-40.5 -16.5zM365 -158q0 -33 -18.5 -66.5t-48 -56t-62.5 -22.5q-11 0 -23.5 9t-12.5 31q0 23 14.5 27.5t24.5 9.5q13 7 20.5 16.5t7.5 23.5q0 11 -10.5 19.5t-27.5 8.5q-6 0 -14 -1.5t-14 -5.5q-10 5 -17.5 12.5t-7.5 24.5q0 31 28.5 53.5t66.5 22.5
q43 0 68.5 -29t25.5 -77z" />
    <glyph glyph-name="kgreenlandic" unicode="&#x138;" horiz-adv-x="569" 
d="M135 0q-26 0 -43 17.5t-17 43.5v413q0 26 17 43.5t43 17.5t43 -17.5t17 -43.5v-413q0 -26 -17 -43.5t-43 -17.5zM453 535q23 0 40 -19t17 -37q0 -24 -24 -45l-301 -277l-5 138l229 221q19 19 44 19zM468 1q-26 0 -44 20l-185 196l91 84l180 -196q19 -20 19 -45
q0 -26 -20.5 -42.5t-40.5 -16.5z" />
    <glyph glyph-name="Lacute" unicode="&#x139;" horiz-adv-x="562" 
d="M461 117q26 0 43.5 -16.5t17.5 -42.5q0 -25 -17.5 -41.5t-43.5 -16.5h-325q-26 0 -43.5 17.5t-17.5 43.5v578q0 26 18 43.5t46 17.5q24 0 42.5 -17.5t18.5 -43.5v-539l-22 17h283zM132 738q-19 0 -30.5 10t-11.5 26q0 7 3.5 13.5t10.5 13.5l86 76q11 9 23.5 15.5
t25.5 6.5q17 0 35 -13t18 -36q0 -15 -9.5 -29.5t-27.5 -23.5l-100 -53q-6 -4 -12 -5t-11 -1z" />
    <glyph glyph-name="lacute" unicode="&#x13a;" horiz-adv-x="270" 
d="M195 61q0 -26 -17.5 -43.5t-43.5 -17.5q-25 0 -42 17.5t-17 43.5v618q0 26 17.5 43.5t43.5 17.5t42.5 -17.5t16.5 -43.5v-618zM137 778q-19 0 -30.5 10t-11.5 26q0 7 3.5 13.5t10.5 13.5l86 76q11 9 23.5 15.5t25.5 6.5q17 0 35 -13t18 -36q0 -15 -9.5 -29.5t-27.5 -23.5
l-100 -53q-6 -4 -12 -5t-11 -1z" />
    <glyph glyph-name="uni013B" unicode="&#x13b;" horiz-adv-x="562" 
d="M461 117q26 0 43.5 -16.5t17.5 -42.5q0 -25 -17.5 -41.5t-43.5 -16.5h-325q-26 0 -43.5 17.5t-17.5 43.5v578q0 26 18 43.5t46 17.5q24 0 42.5 -17.5t18.5 -43.5v-539l-22 17h283zM365 -104q0 -22 -13.5 -43.5t-36.5 -36t-52 -14.5q-25 0 -36.5 11t-11.5 21q0 14 7 18.5
t14 4.5q5 0 13.5 -2.5t16.5 -2.5q11 0 18 7.5t7 20.5t-10 13q-7 0 -10 -4.5t-17 -4.5q-16 0 -26 11t-10 30q0 24 19 35.5t49 11.5q34 0 56.5 -20t22.5 -56z" />
    <glyph glyph-name="uni013C" unicode="&#x13c;" horiz-adv-x="270" 
d="M195 61q0 -26 -17.5 -43.5t-43.5 -17.5q-25 0 -42 17.5t-17 43.5v618q0 26 17.5 43.5t43.5 17.5t42.5 -17.5t16.5 -43.5v-618zM215 -158q0 -33 -18.5 -66.5t-48 -56t-62.5 -22.5q-11 0 -23.5 9t-12.5 31q0 23 14.5 27.5t24.5 9.5q13 7 20.5 16.5t7.5 23.5
q0 11 -10.5 19.5t-27.5 8.5q-6 0 -14 -1.5t-14 -5.5q-10 5 -17.5 12.5t-7.5 24.5q0 31 28.5 53.5t66.5 22.5q43 0 68.5 -29t25.5 -77z" />
    <glyph glyph-name="Lcaron" unicode="&#x13d;" horiz-adv-x="562" 
d="M461 117q26 0 43.5 -16.5t17.5 -42.5q0 -25 -17.5 -41.5t-43.5 -16.5h-325q-26 0 -43.5 17.5t-17.5 43.5v578q0 26 18 43.5t46 17.5q24 0 42.5 -17.5t18.5 -43.5v-539l-22 17h283zM466 646q0 -33 -18.5 -66.5t-48 -56t-62.5 -22.5q-11 0 -23.5 9t-12.5 31q0 23 14.5 27.5
t24.5 9.5q13 7 20.5 16.5t7.5 23.5q0 11 -10.5 19.5t-27.5 8.5q-6 0 -14 -1.5t-14 -5.5q-10 5 -17.5 12.5t-7.5 24.5q0 31 28.5 53.5t66.5 22.5q43 0 68.5 -29t25.5 -77z" />
    <glyph glyph-name="lcaron" unicode="&#x13e;" horiz-adv-x="337" 
d="M195 61q0 -26 -17.5 -43.5t-43.5 -17.5q-25 0 -42 17.5t-17 43.5v618q0 26 17.5 43.5t43.5 17.5t42.5 -17.5t16.5 -43.5v-618zM415 646q0 -33 -18.5 -66.5t-48 -56t-62.5 -22.5q-11 0 -23.5 9t-12.5 31q0 23 14.5 27.5t24.5 9.5q13 7 20.5 16.5t7.5 23.5q0 11 -10.5 19.5
t-27.5 8.5q-6 0 -14 -1.5t-14 -5.5q-10 5 -17.5 12.5t-7.5 24.5q0 31 28.5 53.5t66.5 22.5q43 0 68.5 -29t25.5 -77z" />
    <glyph glyph-name="Ldot" unicode="&#x13f;" horiz-adv-x="542" 
d="M461 117q26 0 43.5 -16.5t17.5 -42.5q0 -25 -17.5 -41.5t-43.5 -16.5h-325q-26 0 -43.5 17.5t-17.5 43.5v578q0 26 18 43.5t46 17.5q24 0 42.5 -17.5t18.5 -43.5v-539l-22 17h283zM412 318q-29 0 -44.5 15.5t-15.5 44.5v17q0 29 15.5 44.5t44.5 15.5h13q29 0 44.5 -15.5
t15.5 -44.5v-17q0 -29 -15.5 -44.5t-44.5 -15.5h-13z" />
    <glyph glyph-name="ldot" unicode="&#x140;" horiz-adv-x="397" 
d="M195 61q0 -26 -17.5 -43.5t-43.5 -17.5q-25 0 -42 17.5t-17 43.5v618q0 26 17.5 43.5t43.5 17.5t42.5 -17.5t16.5 -43.5v-618zM329 318q-29 0 -44.5 15.5t-15.5 44.5v17q0 29 15.5 44.5t44.5 15.5h13q29 0 44.5 -15.5t15.5 -44.5v-17q0 -29 -15.5 -44.5t-44.5 -15.5h-13z
" />
    <glyph glyph-name="Lslash" unicode="&#x141;" horiz-adv-x="633" 
d="M86 270q-26 0 -38.5 18.5t-12.5 34.5q0 30 32 44l294 130q12 5 22 5q25 0 37.5 -18t12.5 -34q0 -31 -32 -45l-294 -130q-5 -2 -10.5 -3.5t-10.5 -1.5zM266 109l-6 11h272q26 0 43.5 -17.5t17.5 -43.5q0 -25 -17.5 -42t-43.5 -17h-325q-26 0 -43.5 17.5t-17.5 43.5v578
q0 26 17.5 43.5t43.5 17.5t42.5 -17.5t16.5 -43.5v-530z" />
    <glyph glyph-name="lslash" unicode="&#x142;" horiz-adv-x="270" 
d="M29 270q-25 0 -37 18.5t-12 32.5q0 30 31 45l215 99q6 2 11.5 3.5t11.5 1.5q25 0 37 -18.5t12 -32.5t-8.5 -26t-22.5 -19l-215 -99q-6 -3 -12 -4t-11 -1zM195 61q0 -26 -17.5 -43.5t-43.5 -17.5q-25 0 -42 17.5t-17 43.5v618q0 26 17.5 43.5t43.5 17.5t42.5 -17.5
t16.5 -43.5v-618z" />
    <glyph glyph-name="Nacute" unicode="&#x143;" horiz-adv-x="735" 
d="M606 700q24 0 39 -16t15 -40v-583q0 -26 -17.5 -43.5t-43.5 -17.5q-13 0 -26.5 4.5t-20.5 12.5l-393 499l26 16v-476q0 -24 -15.5 -40t-40.5 -16q-24 0 -39 16t-15 40v583q0 26 17.5 43.5t43.5 17.5q14 0 29 -5.5t22 -16.5l381 -486l-17 -12v464q0 24 15 40t40 16z
M369 738q-19 0 -30.5 10t-11.5 26q0 7 3.5 13.5t10.5 13.5l86 76q11 9 23.5 15.5t25.5 6.5q17 0 35 -13t18 -36q0 -15 -9.5 -29.5t-27.5 -23.5l-100 -53q-6 -4 -12 -5t-11 -1z" />
    <glyph glyph-name="nacute" unicode="&#x144;" horiz-adv-x="596" 
d="M351 545q74 0 112.5 -31t53 -82.5t14.5 -114.5v-256q0 -26 -17 -43.5t-43 -17.5t-43 17.5t-17 43.5v256q0 33 -8.5 59.5t-30.5 42.5t-63 16q-40 0 -67.5 -16t-42 -42.5t-14.5 -59.5v-256q0 -26 -17 -43.5t-43 -17.5t-43 17.5t-17 43.5v413q0 26 17 43.5t43 17.5t43 -17.5
t17 -43.5v-43l-15 3q9 17 26 36.5t40 36.5t52 27.5t63 10.5zM318 569q-8 0 -20.5 8.5t-11.5 24.5q0 9 6 19l58 102q9 16 23 28t32 12q28 0 41 -14.5t12 -35.5q-1 -10 -5.5 -21t-13.5 -22l-76 -84q-10 -11 -22 -14t-23 -3z" />
    <glyph glyph-name="uni0145" unicode="&#x145;" horiz-adv-x="735" 
d="M606 700q24 0 39 -16t15 -40v-583q0 -26 -17.5 -43.5t-43.5 -17.5q-13 0 -26.5 4.5t-20.5 12.5l-393 499l26 16v-476q0 -24 -15.5 -40t-40.5 -16q-24 0 -39 16t-15 40v583q0 26 17.5 43.5t43.5 17.5q14 0 29 -5.5t22 -16.5l381 -486l-17 -12v464q0 24 15 40t40 16z
M452 -104q0 -22 -13.5 -43.5t-36.5 -36t-52 -14.5q-25 0 -36.5 11t-11.5 21q0 14 7 18.5t14 4.5q5 0 13.5 -2.5t16.5 -2.5q11 0 18 7.5t7 20.5t-10 13q-7 0 -10 -4.5t-17 -4.5q-16 0 -26 11t-10 30q0 24 19 35.5t49 11.5q34 0 56.5 -20t22.5 -56z" />
    <glyph glyph-name="uni0146" unicode="&#x146;" horiz-adv-x="596" 
d="M351 545q74 0 112.5 -31t53 -82.5t14.5 -114.5v-256q0 -26 -17 -43.5t-43 -17.5t-43 17.5t-17 43.5v256q0 33 -8.5 59.5t-30.5 42.5t-63 16q-40 0 -67.5 -16t-42 -42.5t-14.5 -59.5v-256q0 -26 -17 -43.5t-43 -17.5t-43 17.5t-17 43.5v413q0 26 17 43.5t43 17.5t43 -17.5
t17 -43.5v-43l-15 3q9 17 26 36.5t40 36.5t52 27.5t63 10.5zM378 -158q0 -33 -18.5 -66.5t-48 -56t-62.5 -22.5q-11 0 -23.5 9t-12.5 31q0 23 14.5 27.5t24.5 9.5q13 7 20.5 16.5t7.5 23.5q0 11 -10.5 19.5t-27.5 8.5q-6 0 -14 -1.5t-14 -5.5q-10 5 -17.5 12.5t-7.5 24.5
q0 31 28.5 53.5t66.5 22.5q43 0 68.5 -29t25.5 -77z" />
    <glyph glyph-name="Ncaron" unicode="&#x147;" horiz-adv-x="735" 
d="M606 700q24 0 39 -16t15 -40v-583q0 -26 -17.5 -43.5t-43.5 -17.5q-13 0 -26.5 4.5t-20.5 12.5l-393 499l26 16v-476q0 -24 -15.5 -40t-40.5 -16q-24 0 -39 16t-15 40v583q0 26 17.5 43.5t43.5 17.5q14 0 29 -5.5t22 -16.5l381 -486l-17 -12v464q0 24 15 40t40 16z
M350 822l84 54q17 11 29 15.5t22 4.5q14 0 22.5 -8t8.5 -17q0 -7 -3 -13t-12 -17l-63 -72q-13 -14 -27 -21.5t-34 -7.5h-16q-20 0 -34 7.5t-27 21.5l-63 72q-9 11 -12 17t-3 13q0 9 9 17t22 8q20 0 51 -20l84 -54h-38z" />
    <glyph glyph-name="ncaron" unicode="&#x148;" horiz-adv-x="596" 
d="M351 545q74 0 112.5 -31t53 -82.5t14.5 -114.5v-256q0 -26 -17 -43.5t-43 -17.5t-43 17.5t-17 43.5v256q0 33 -8.5 59.5t-30.5 42.5t-63 16q-40 0 -67.5 -16t-42 -42.5t-14.5 -59.5v-256q0 -26 -17 -43.5t-43 -17.5t-43 17.5t-17 43.5v413q0 26 17 43.5t43 17.5t43 -17.5
t17 -43.5v-43l-15 3q9 17 26 36.5t40 36.5t52 27.5t63 10.5zM293 600q-38 0 -61 30l-44 55q-12 16 -12 32q0 13 10.5 21t30.5 8q18 0 45 -23l65 -56l-26 3l61 53q14 12 25 17.5t30 5.5q14 0 23.5 -7.5t9.5 -18.5q0 -7 -3.5 -15.5t-12.5 -19.5l-44 -55q-23 -30 -61 -30h-36z
" />
    <glyph glyph-name="napostrophe" unicode="&#x149;" horiz-adv-x="625" 
d="M-23 652q5 48 52 48h31q28 0 39 -15.5t2 -41.5l-68 -209q-12 -33 -43 -33q-32 0 -29 41zM380 545q74 0 112.5 -31t53 -82.5t14.5 -114.5v-256q0 -26 -17 -43.5t-43 -17.5t-43 17.5t-17 43.5v256q0 33 -8.5 59.5t-30.5 42.5t-63 16q-40 0 -67.5 -16t-42 -42.5t-14.5 -59.5
v-256q0 -26 -17 -43.5t-43 -17.5t-43 17.5t-17 43.5v413q0 26 17 43.5t43 17.5t43 -17.5t17 -43.5v-43l-15 3q9 17 26 36.5t40 36.5t52 27.5t63 10.5z" />
    <glyph glyph-name="Eng" unicode="&#x14a;" horiz-adv-x="755" 
d="M503 -200q-28 0 -46 14t-18 38t16.5 40.5t41.5 17.5q21 1 35 8t21 22.5t7 40.5v73l6 -26l-387 471l16 -1v-437q0 -26 -17.5 -43.5t-43.5 -17.5q-25 0 -42 17.5t-17 43.5v578q0 26 17.5 43.5t43.5 17.5q15 0 27.5 -6t22.5 -20l392 -479l-18 -8v452q0 26 17.5 43.5
t43.5 17.5t42.5 -17.5t16.5 -43.5v-589v-64q0 -71 -26 -112t-66.5 -57.5t-84.5 -16.5z" />
    <glyph glyph-name="eng" unicode="&#x14b;" horiz-adv-x="596" 
d="M354 -200q-28 0 -46 14t-18 38t16.5 40.5t41.5 17.5q21 1 35 8t21 22.5t7 40.5v336q0 33 -8.5 59.5t-30.5 42.5t-63 16q-40 0 -67.5 -16t-42 -42.5t-14.5 -59.5v-256q0 -26 -17 -43.5t-43 -17.5t-43 17.5t-17 43.5v413q0 26 17 43.5t43 17.5t43 -17.5t17 -43.5v-43l-15 3
q9 17 26 36.5t40 36.5t52 27.5t63 10.5q74 0 112.5 -31t53 -82.5t14.5 -114.5v-331q0 -71 -26 -112t-66.5 -57.5t-84.5 -16.5z" />
    <glyph glyph-name="Omacron" unicode="&#x14c;" horiz-adv-x="759" 
d="M719 350q0 -75 -25 -140t-70.5 -114.5t-108 -77.5t-136.5 -28t-136 28t-107.5 77.5t-70.5 114.5t-25 140t25 140t70.5 114.5t107.5 77.5t136 28t136.5 -28t108 -77.5t70.5 -114.5t25 -140zM589 350q0 67 -27 121.5t-74 86.5t-109 32t-109 -32t-73.5 -86t-26.5 -122
q0 -67 26.5 -121.5t73.5 -86.5t109 -32t109 32t74 86.5t27 121.5zM259 750q-50 0 -50 45q0 44 50 44h242q50 0 50 -44q0 -45 -50 -45h-242z" />
    <glyph glyph-name="omacron" unicode="&#x14d;" horiz-adv-x="624" 
d="M584 267q0 -82 -36.5 -144.5t-98 -97.5t-137.5 -35t-137.5 35t-98 97.5t-36.5 144.5t36.5 144.5t98 98t137.5 35.5t137.5 -35.5t98 -98t36.5 -144.5zM464 267q0 51 -20.5 88.5t-55 58.5t-76.5 21t-76.5 -21t-55 -58.5t-20.5 -88.5q0 -50 20.5 -87.5t55 -58.5t76.5 -21
t76.5 21t55 58.5t20.5 87.5zM191 600q-50 0 -50 45q0 44 50 44h242q50 0 50 -44q0 -45 -50 -45h-242z" />
    <glyph glyph-name="Obreve" unicode="&#x14e;" horiz-adv-x="759" 
d="M719 350q0 -75 -25 -140t-70.5 -114.5t-108 -77.5t-136.5 -28t-136 28t-107.5 77.5t-70.5 114.5t-25 140t25 140t70.5 114.5t107.5 77.5t136 28t136.5 -28t108 -77.5t70.5 -114.5t25 -140zM589 350q0 67 -27 121.5t-74 86.5t-109 32t-109 -32t-73.5 -86t-26.5 -122
q0 -67 26.5 -121.5t73.5 -86.5t109 -32t109 32t74 86.5t27 121.5zM380 758q-56 0 -97.5 24.5t-60.5 68.5q-10 25 0 40t29 15q21 0 33.5 -9.5t26.5 -26.5q11 -13 27.5 -20t41.5 -7q48 0 69 27q14 17 26.5 26.5t33.5 9.5q20 0 30 -14.5t0 -38.5q-19 -46 -60.5 -70.5
t-98.5 -24.5z" />
    <glyph glyph-name="obreve" unicode="&#x14f;" horiz-adv-x="624" 
d="M584 267q0 -82 -36.5 -144.5t-98 -97.5t-137.5 -35t-137.5 35t-98 97.5t-36.5 144.5t36.5 144.5t98 98t137.5 35.5t137.5 -35.5t98 -98t36.5 -144.5zM464 267q0 51 -20.5 88.5t-55 58.5t-76.5 21t-76.5 -21t-55 -58.5t-20.5 -88.5q0 -50 20.5 -87.5t55 -58.5t76.5 -21
t76.5 21t55 58.5t20.5 87.5zM312 570q-37 0 -68.5 10.5t-54.5 31.5t-35 51q-10 25 0 40t29 15q21 0 34 -9.5t26 -26.5q11 -13 27.5 -20t41.5 -7t41.5 7t27.5 20q14 17 26.5 26.5t33.5 9.5q20 0 30 -14.5t0 -38.5q-12 -30 -35 -51.5t-54.5 -32.5t-69.5 -11z" />
    <glyph glyph-name="Ohungarumlaut" unicode="&#x150;" horiz-adv-x="759" 
d="M719 350q0 -75 -25 -140t-70.5 -114.5t-108 -77.5t-136.5 -28t-136 28t-107.5 77.5t-70.5 114.5t-25 140t25 140t70.5 114.5t107.5 77.5t136 28t136.5 -28t108 -77.5t70.5 -114.5t25 -140zM589 350q0 67 -27 121.5t-74 86.5t-109 32t-109 -32t-73.5 -86t-26.5 -122
q0 -67 26.5 -121.5t73.5 -86.5t109 -32t109 32t74 86.5t27 121.5zM288 780q-28 0 -28 25q0 16 12 35l41 64q8 14 19.5 22.5t28.5 8.5q22 0 39 -14.5t17 -34.5q0 -8 -4.5 -17t-13.5 -17l-49 -47q-14 -13 -28 -19t-34 -6zM470 780q-28 0 -28 24q0 16 13 36l42 65q8 13 19 19.5
t28 6.5t36.5 -9.5t19.5 -32.5q0 -10 -4.5 -19.5t-13.5 -17.5l-50 -47q-14 -13 -28 -19t-34 -6z" />
    <glyph glyph-name="ohungarumlaut" unicode="&#x151;" horiz-adv-x="624" 
d="M584 267q0 -82 -36.5 -144.5t-98 -97.5t-137.5 -35t-137.5 35t-98 97.5t-36.5 144.5t36.5 144.5t98 98t137.5 35.5t137.5 -35.5t98 -98t36.5 -144.5zM464 267q0 51 -20.5 88.5t-55 58.5t-76.5 21t-76.5 -21t-55 -58.5t-20.5 -88.5q0 -50 20.5 -87.5t55 -58.5t76.5 -21
t76.5 21t55 58.5t20.5 87.5zM215 597q-14 0 -22.5 8t-10.5 19q-1 15 12 36l41 64q9 14 22 22t30 8q18 0 35 -11t17 -37q0 -8 -4.5 -17t-13.5 -17l-49 -47q-14 -13 -25.5 -20.5t-31.5 -7.5zM397 597q-13 0 -23 8t-10 18q0 17 13 37l42 65q8 13 18.5 19.5t28.5 6.5
q19 0 37.5 -9.5t18.5 -34.5q0 -8 -4 -17t-14 -18l-50 -47q-14 -13 -25.5 -20.5t-31.5 -7.5z" />
    <glyph glyph-name="OE" unicode="&#x152;" horiz-adv-x="967" 
d="M866 120q26 0 43.5 -17.5t17.5 -43.5q0 -25 -17.5 -42t-43.5 -17h-526q-96 0 -163 47t-102 126.5t-35 176.5q0 72 19.5 135.5t58 112t94.5 75.5t128 27h526q26 0 43.5 -17.5t17.5 -43.5q0 -25 -17.5 -42t-43.5 -17h-277l11 21v-212l-12 15h233q26 0 43.5 -17.5
t17.5 -43.5q0 -25 -17.5 -42t-43.5 -17h-233l12 20v-193l-6 9h272zM495 120l-15 -16v494l13 -18h-153q-47 0 -81 -18t-56 -49.5t-32.5 -73.5t-10.5 -89q0 -63 18.5 -115.5t58.5 -83.5t103 -31h155z" />
    <glyph glyph-name="oe" unicode="&#x153;" horiz-adv-x="1015" 
d="M584 267q0 -82 -36.5 -144.5t-98 -97.5t-137.5 -35t-137.5 35t-98 97.5t-36.5 144.5t36.5 144.5t98 98t137.5 35.5t137.5 -35.5t98 -98t36.5 -144.5zM464 267q0 51 -20.5 88.5t-55 58.5t-76.5 21t-76.5 -21t-55 -58.5t-20.5 -88.5q0 -50 20.5 -87.5t55 -58.5t76.5 -21
t76.5 21t55 58.5t20.5 87.5zM742 -10q-85 0 -147.5 35.5t-96 96.5t-33.5 138q0 90 36.5 153.5t95.5 97.5t125 34q51 0 96.5 -21t80.5 -57.5t55.5 -84.5t20.5 -102q-1 -24 -19 -39t-42 -15h-382l-30 100h367l-22 -20v27q-2 29 -20.5 52t-46 36.5t-58.5 13.5q-30 0 -56 -8
t-45 -27t-30 -51t-11 -81q0 -54 22.5 -91.5t58 -57t75.5 -19.5q37 0 59 6t35.5 14.5t24.5 14.5q18 9 34 9q22 0 36.5 -15t14.5 -35q0 -27 -28 -49q-26 -22 -73 -38.5t-97 -16.5z" />
    <glyph glyph-name="Racute" unicode="&#x154;" horiz-adv-x="687" 
d="M147 0q-28 0 -50 17.5t-22 43.5v578q0 26 17.5 43.5t43.5 17.5h288q52 0 97.5 -27.5t73.5 -76t28 -111.5q0 -38 -15.5 -74t-42 -65t-59.5 -45l1 23q28 -15 46.5 -35.5t29 -44t12.5 -50.5q4 -25 5.5 -44t6 -32t17.5 -20q22 -13 27.5 -37.5t-11.5 -43.5q-11 -13 -28 -16.5
t-34 0t-28 9.5q-17 10 -34 29.5t-27.5 52.5t-10.5 85q0 17 -6 31.5t-17 25t-28 16t-40 5.5h-202l15 23v-217q0 -26 -14 -43.5t-39 -17.5zM186 358h233q18 0 35 16.5t28 45t11 62.5q0 44 -23.5 73.5t-50.5 29.5h-231l12 32v-283zM345 738q-19 0 -30.5 10t-11.5 26
q0 7 3.5 13.5t10.5 13.5l86 76q11 9 23.5 15.5t25.5 6.5q17 0 35 -13t18 -36q0 -15 -9.5 -29.5t-27.5 -23.5l-100 -53q-6 -4 -12 -5t-11 -1z" />
    <glyph glyph-name="racute" unicode="&#x155;" horiz-adv-x="434" 
d="M125 0q-26 0 -43 17.5t-17 43.5v413q0 26 17 43.5t43 17.5t43 -17.5t17 -43.5v-94l-7 67q11 24 28.5 42.5t39.5 31t47 18.5t50 6q30 0 50.5 -17t20.5 -40q0 -33 -17 -47.5t-37 -14.5q-19 0 -34.5 7t-35.5 7q-18 0 -36.5 -8.5t-34 -26.5t-25 -44.5t-9.5 -62.5v-237
q0 -26 -17 -43.5t-43 -17.5zM222 569q-8 0 -20.5 8.5t-11.5 24.5q0 9 6 19l58 102q9 16 23 28t32 12q28 0 41 -14.5t12 -35.5q-1 -10 -5.5 -21t-13.5 -22l-76 -84q-10 -11 -22 -14t-23 -3z" />
    <glyph glyph-name="uni0156" unicode="&#x156;" horiz-adv-x="687" 
d="M147 0q-28 0 -50 17.5t-22 43.5v578q0 26 17.5 43.5t43.5 17.5h288q52 0 97.5 -27.5t73.5 -76t28 -111.5q0 -38 -15.5 -74t-42 -65t-59.5 -45l1 23q28 -15 46.5 -35.5t29 -44t12.5 -50.5q4 -25 5.5 -44t6 -32t17.5 -20q22 -13 27.5 -37.5t-11.5 -43.5q-11 -13 -28 -16.5
t-34 0t-28 9.5q-17 10 -34 29.5t-27.5 52.5t-10.5 85q0 17 -6 31.5t-17 25t-28 16t-40 5.5h-202l15 23v-217q0 -26 -14 -43.5t-39 -17.5zM186 358h233q18 0 35 16.5t28 45t11 62.5q0 44 -23.5 73.5t-50.5 29.5h-231l12 32v-283zM428 -104q0 -22 -13.5 -43.5t-36.5 -36
t-52 -14.5q-25 0 -36.5 11t-11.5 21q0 14 7 18.5t14 4.5q5 0 13.5 -2.5t16.5 -2.5q11 0 18 7.5t7 20.5t-10 13q-7 0 -10 -4.5t-17 -4.5q-16 0 -26 11t-10 30q0 24 19 35.5t49 11.5q34 0 56.5 -20t22.5 -56z" />
    <glyph glyph-name="uni0157" unicode="&#x157;" horiz-adv-x="434" 
d="M125 0q-26 0 -43 17.5t-17 43.5v413q0 26 17 43.5t43 17.5t43 -17.5t17 -43.5v-94l-7 67q11 24 28.5 42.5t39.5 31t47 18.5t50 6q30 0 50.5 -17t20.5 -40q0 -33 -17 -47.5t-37 -14.5q-19 0 -34.5 7t-35.5 7q-18 0 -36.5 -8.5t-34 -26.5t-25 -44.5t-9.5 -62.5v-237
q0 -26 -17 -43.5t-43 -17.5zM202 -158q0 -33 -18.5 -66.5t-48 -56t-62.5 -22.5q-11 0 -23.5 9t-12.5 31q0 23 14.5 27.5t24.5 9.5q13 7 20.5 16.5t7.5 23.5q0 11 -10.5 19.5t-27.5 8.5q-6 0 -14 -1.5t-14 -5.5q-10 5 -17.5 12.5t-7.5 24.5q0 31 28.5 53.5t66.5 22.5
q43 0 68.5 -29t25.5 -77z" />
    <glyph glyph-name="Rcaron" unicode="&#x158;" horiz-adv-x="687" 
d="M147 0q-28 0 -50 17.5t-22 43.5v578q0 26 17.5 43.5t43.5 17.5h288q52 0 97.5 -27.5t73.5 -76t28 -111.5q0 -38 -15.5 -74t-42 -65t-59.5 -45l1 23q28 -15 46.5 -35.5t29 -44t12.5 -50.5q4 -25 5.5 -44t6 -32t17.5 -20q22 -13 27.5 -37.5t-11.5 -43.5q-11 -13 -28 -16.5
t-34 0t-28 9.5q-17 10 -34 29.5t-27.5 52.5t-10.5 85q0 17 -6 31.5t-17 25t-28 16t-40 5.5h-202l15 23v-217q0 -26 -14 -43.5t-39 -17.5zM186 358h233q18 0 35 16.5t28 45t11 62.5q0 44 -23.5 73.5t-50.5 29.5h-231l12 32v-283zM326 822l84 54q17 11 29 15.5t22 4.5
q14 0 22.5 -8t8.5 -17q0 -7 -3 -13t-12 -17l-63 -72q-13 -14 -27 -21.5t-34 -7.5h-16q-20 0 -34 7.5t-27 21.5l-63 72q-9 11 -12 17t-3 13q0 9 9 17t22 8q20 0 51 -20l84 -54h-38z" />
    <glyph glyph-name="rcaron" unicode="&#x159;" horiz-adv-x="434" 
d="M125 0q-26 0 -43 17.5t-17 43.5v413q0 26 17 43.5t43 17.5t43 -17.5t17 -43.5v-94l-7 67q11 24 28.5 42.5t39.5 31t47 18.5t50 6q30 0 50.5 -17t20.5 -40q0 -33 -17 -47.5t-37 -14.5q-19 0 -34.5 7t-35.5 7q-18 0 -36.5 -8.5t-34 -26.5t-25 -44.5t-9.5 -62.5v-237
q0 -26 -17 -43.5t-43 -17.5zM197 600q-38 0 -61 30l-44 55q-12 16 -12 32q0 13 10.5 21t30.5 8q18 0 45 -23l65 -56l-26 3l61 53q14 12 25 17.5t30 5.5q14 0 23.5 -7.5t9.5 -18.5q0 -7 -3.5 -15.5t-12.5 -19.5l-44 -55q-23 -30 -61 -30h-36z" />
    <glyph glyph-name="Sacute" unicode="&#x15a;" horiz-adv-x="597" 
d="M300 -10q-70 0 -126 17.5t-107 61.5q-13 11 -20 25t-7 28q0 23 16.5 40.5t41.5 17.5q19 0 34 -12q38 -31 75.5 -47t92.5 -16q37 0 68 11.5t50 31t19 44.5q0 30 -18 51t-55 35.5t-94 22.5q-54 8 -95 24.5t-68.5 42t-41.5 60t-14 77.5q0 65 33.5 111t90.5 70t126 24
q65 0 120.5 -19.5t90.5 -49.5q29 -23 29 -53q0 -22 -17 -40t-40 -18q-15 0 -27 9q-16 14 -43 26.5t-57 21t-56 8.5q-43 0 -72.5 -11t-44.5 -30t-15 -44q0 -30 17.5 -49.5t50.5 -31t79 -20.5q60 -11 105.5 -26t75.5 -38.5t45 -59t15 -86.5q0 -65 -36 -112t-94.5 -72
t-126.5 -25zM300 738q-19 0 -30.5 10t-11.5 26q0 7 3.5 13.5t10.5 13.5l86 76q11 9 23.5 15.5t25.5 6.5q17 0 35 -13t18 -36q0 -15 -9.5 -29.5t-27.5 -23.5l-100 -53q-6 -4 -12 -5t-11 -1z" />
    <glyph glyph-name="sacute" unicode="&#x15b;" horiz-adv-x="482" 
d="M34 83q-10 14 -9 36t26 38q16 10 34 8.5t35 -18.5q29 -29 61 -45t80 -16q15 1 33 4.5t31.5 16t13.5 38.5q0 22 -15 35t-39.5 22t-54.5 17q-31 9 -63.5 20t-59.5 28.5t-44 46.5t-17 73q0 50 28 85t72.5 54t93.5 19q31 0 65 -7.5t65 -24t52 -43.5q11 -15 13 -36t-19 -38
q-15 -12 -35 -10.5t-33 13.5q-17 22 -45.5 35t-65.5 13q-15 0 -32.5 -3.5t-30.5 -15t-13 -36.5q0 -23 15 -36.5t40.5 -22t54.5 -16.5q30 -8 61 -19t57 -29t42 -46.5t16 -72.5q0 -51 -30 -87t-75 -54.5t-92 -18.5q-59 0 -118 20.5t-98 72.5zM246 569q-8 0 -20.5 8.5
t-11.5 24.5q0 9 6 19l58 102q9 16 23 28t32 12q28 0 41 -14.5t12 -35.5q-1 -10 -5.5 -21t-13.5 -22l-76 -84q-10 -11 -22 -14t-23 -3z" />
    <glyph glyph-name="Scircumflex" unicode="&#x15c;" horiz-adv-x="597" 
d="M300 -10q-70 0 -126 17.5t-107 61.5q-13 11 -20 25t-7 28q0 23 16.5 40.5t41.5 17.5q19 0 34 -12q38 -31 75.5 -47t92.5 -16q37 0 68 11.5t50 31t19 44.5q0 30 -18 51t-55 35.5t-94 22.5q-54 8 -95 24.5t-68.5 42t-41.5 60t-14 77.5q0 65 33.5 111t90.5 70t126 24
q65 0 120.5 -19.5t90.5 -49.5q29 -23 29 -53q0 -22 -17 -40t-40 -18q-15 0 -27 9q-16 14 -43 26.5t-57 21t-56 8.5q-43 0 -72.5 -11t-44.5 -30t-15 -44q0 -30 17.5 -49.5t50.5 -31t79 -20.5q60 -11 105.5 -26t75.5 -38.5t45 -59t15 -86.5q0 -65 -36 -112t-94.5 -72
t-126.5 -25zM317 811l-84 -49q-17 -10 -29 -16t-22 -6q-13 0 -22 8t-9 17q0 8 3 14t12 16l63 72q13 14 27 21.5t34 7.5h16q20 0 34 -7.5t27 -21.5l63 -72q9 -10 12 -16t3 -14q0 -9 -8.5 -17t-22.5 -8q-10 0 -22 6t-29 16l-84 49h38z" />
    <glyph glyph-name="scircumflex" unicode="&#x15d;" horiz-adv-x="482" 
d="M34 83q-10 14 -9 36t26 38q16 10 34 8.5t35 -18.5q29 -29 61 -45t80 -16q15 1 33 4.5t31.5 16t13.5 38.5q0 22 -15 35t-39.5 22t-54.5 17q-31 9 -63.5 20t-59.5 28.5t-44 46.5t-17 73q0 50 28 85t72.5 54t93.5 19q31 0 65 -7.5t65 -24t52 -43.5q11 -15 13 -36t-19 -38
q-15 -12 -35 -10.5t-33 13.5q-17 22 -45.5 35t-65.5 13q-15 0 -32.5 -3.5t-30.5 -15t-13 -36.5q0 -23 15 -36.5t40.5 -22t54.5 -16.5q30 -8 61 -19t57 -29t42 -46.5t16 -72.5q0 -51 -30 -87t-75 -54.5t-92 -18.5q-59 0 -118 20.5t-98 72.5zM263 687l-77 -64
q-13 -11 -21.5 -17.5t-27.5 -6.5q-13 0 -21.5 7.5t-8.5 17.5q0 8 2 14.5t10 16.5l49 62q23 29 61 29h36q20 0 31.5 -6t22.5 -23l44 -62q8 -10 10 -16.5t2 -14.5q0 -10 -8 -17.5t-22 -7.5q-19 0 -27 6.5t-22 17.5l-84 74z" />
    <glyph glyph-name="Scedilla" unicode="&#x15e;" horiz-adv-x="597" 
d="M300 -10q-70 0 -126 17.5t-107 61.5q-13 11 -20 25t-7 28q0 23 16.5 40.5t41.5 17.5q19 0 34 -12q38 -31 75.5 -47t92.5 -16q37 0 68 11.5t50 31t19 44.5q0 30 -18 51t-55 35.5t-94 22.5q-54 8 -95 24.5t-68.5 42t-41.5 60t-14 77.5q0 65 33.5 111t90.5 70t126 24
q65 0 120.5 -19.5t90.5 -49.5q29 -23 29 -53q0 -22 -17 -40t-40 -18q-15 0 -27 9q-16 14 -43 26.5t-57 21t-56 8.5q-43 0 -72.5 -11t-44.5 -30t-15 -44q0 -30 17.5 -49.5t50.5 -31t79 -20.5q60 -11 105.5 -26t75.5 -38.5t45 -59t15 -86.5q0 -65 -36 -112t-94.5 -72
t-126.5 -25zM244 -151q-10 0 -25.5 5.5t-27.5 16t-12 24.5q0 15 12 30l78 105h71l-55 -149q-12 -32 -41 -32z" />
    <glyph glyph-name="scedilla" unicode="&#x15f;" horiz-adv-x="482" 
d="M34 83q-10 14 -9 36t26 38q16 10 34 8.5t35 -18.5q29 -29 61 -45t80 -16q15 1 33 4.5t31.5 16t13.5 38.5q0 22 -15 35t-39.5 22t-54.5 17q-31 9 -63.5 20t-59.5 28.5t-44 46.5t-17 73q0 50 28 85t72.5 54t93.5 19q31 0 65 -7.5t65 -24t52 -43.5q11 -15 13 -36t-19 -38
q-15 -12 -35 -10.5t-33 13.5q-17 22 -45.5 35t-65.5 13q-15 0 -32.5 -3.5t-30.5 -15t-13 -36.5q0 -23 15 -36.5t40.5 -22t54.5 -16.5q30 -8 61 -19t57 -29t42 -46.5t16 -72.5q0 -51 -30 -87t-75 -54.5t-92 -18.5q-59 0 -118 20.5t-98 72.5zM225 -151q-10 0 -25.5 5.5
t-27.5 16t-12 24.5q0 15 12 30l78 105h71l-55 -149q-12 -32 -41 -32z" />
    <glyph glyph-name="Scaron" unicode="&#x160;" horiz-adv-x="597" 
d="M300 -10q-70 0 -126 17.5t-107 61.5q-13 11 -20 25t-7 28q0 23 16.5 40.5t41.5 17.5q19 0 34 -12q38 -31 75.5 -47t92.5 -16q37 0 68 11.5t50 31t19 44.5q0 30 -18 51t-55 35.5t-94 22.5q-54 8 -95 24.5t-68.5 42t-41.5 60t-14 77.5q0 65 33.5 111t90.5 70t126 24
q65 0 120.5 -19.5t90.5 -49.5q29 -23 29 -53q0 -22 -17 -40t-40 -18q-15 0 -27 9q-16 14 -43 26.5t-57 21t-56 8.5q-43 0 -72.5 -11t-44.5 -30t-15 -44q0 -30 17.5 -49.5t50.5 -31t79 -20.5q60 -11 105.5 -26t75.5 -38.5t45 -59t15 -86.5q0 -65 -36 -112t-94.5 -72
t-126.5 -25zM281 822l84 54q17 11 29 15.5t22 4.5q14 0 22.5 -8t8.5 -17q0 -7 -3 -13t-12 -17l-63 -72q-13 -14 -27 -21.5t-34 -7.5h-16q-20 0 -34 7.5t-27 21.5l-63 72q-9 11 -12 17t-3 13q0 9 9 17t22 8q20 0 51 -20l84 -54h-38z" />
    <glyph glyph-name="scaron" unicode="&#x161;" horiz-adv-x="482" 
d="M34 83q-10 14 -9 36t26 38q16 10 34 8.5t35 -18.5q29 -29 61 -45t80 -16q15 1 33 4.5t31.5 16t13.5 38.5q0 22 -15 35t-39.5 22t-54.5 17q-31 9 -63.5 20t-59.5 28.5t-44 46.5t-17 73q0 50 28 85t72.5 54t93.5 19q31 0 65 -7.5t65 -24t52 -43.5q11 -15 13 -36t-19 -38
q-15 -12 -35 -10.5t-33 13.5q-17 22 -45.5 35t-65.5 13q-15 0 -32.5 -3.5t-30.5 -15t-13 -36.5q0 -23 15 -36.5t40.5 -22t54.5 -16.5q30 -8 61 -19t57 -29t42 -46.5t16 -72.5q0 -51 -30 -87t-75 -54.5t-92 -18.5q-59 0 -118 20.5t-98 72.5zM221 600q-38 0 -61 30l-44 55
q-12 16 -12 32q0 13 10.5 21t30.5 8q18 0 45 -23l65 -56l-26 3l61 53q14 12 25 17.5t30 5.5q14 0 23.5 -7.5t9.5 -18.5q0 -7 -3.5 -15.5t-12.5 -19.5l-44 -55q-23 -30 -61 -30h-36z" />
    <glyph glyph-name="uni0162" unicode="&#x162;" horiz-adv-x="626" 
d="M312 0q-28 0 -46 17.5t-18 43.5v580h130v-580q0 -26 -18.5 -43.5t-47.5 -17.5zM91 585q-26 0 -43.5 16t-17.5 42t17.5 41.5t43.5 15.5h444q26 0 43.5 -16t17.5 -42t-17.5 -41.5t-43.5 -15.5h-444zM258 -151q-10 0 -25.5 5.5t-27.5 16t-12 24.5q0 15 12 30l78 105h71
l-55 -149q-12 -32 -41 -32z" />
    <glyph glyph-name="uni0163" unicode="&#x163;" horiz-adv-x="409" 
d="M71 525h237q24 0 40 -16t16 -40q0 -23 -16 -38.5t-40 -15.5h-237q-24 0 -40 16t-16 40q0 23 16 38.5t40 15.5zM178 650q26 0 42.5 -17.5t16.5 -43.5v-445q0 -14 5.5 -23t15 -13t20.5 -4q12 0 22 4.5t23 4.5q14 0 25.5 -13t11.5 -36q0 -28 -30.5 -46t-65.5 -18
q-21 0 -46.5 3.5t-48 17t-37.5 41.5t-15 77v450q0 26 17.5 43.5t43.5 17.5zM209 -151q-10 0 -25.5 5.5t-27.5 16t-12 24.5q0 15 12 30l78 105h71l-55 -149q-12 -32 -41 -32z" />
    <glyph glyph-name="Tcaron" unicode="&#x164;" horiz-adv-x="626" 
d="M312 0q-28 0 -46 17.5t-18 43.5v580h130v-580q0 -26 -18.5 -43.5t-47.5 -17.5zM91 585q-26 0 -43.5 16t-17.5 42t17.5 41.5t43.5 15.5h444q26 0 43.5 -16t17.5 -42t-17.5 -41.5t-43.5 -15.5h-444zM295 822l84 54q17 11 29 15.5t22 4.5q14 0 22.5 -8t8.5 -17q0 -7 -3 -13
t-12 -17l-63 -72q-13 -14 -27 -21.5t-34 -7.5h-16q-20 0 -34 7.5t-27 21.5l-63 72q-9 11 -12 17t-3 13q0 9 9 17t22 8q20 0 51 -20l84 -54h-38z" />
    <glyph glyph-name="tcaron" unicode="&#x165;" horiz-adv-x="409" 
d="M71 525h237q24 0 40 -16t16 -40q0 -23 -16 -38.5t-40 -15.5h-237q-24 0 -40 16t-16 40q0 23 16 38.5t40 15.5zM178 650q26 0 42.5 -17.5t16.5 -43.5v-445q0 -14 5.5 -23t15 -13t20.5 -4q12 0 22 4.5t23 4.5q14 0 25.5 -13t11.5 -36q0 -28 -30.5 -46t-65.5 -18
q-21 0 -46.5 3.5t-48 17t-37.5 41.5t-15 77v450q0 26 17.5 43.5t43.5 17.5zM443 722q0 -33 -18.5 -66.5t-48 -56t-62.5 -22.5q-11 0 -23.5 9t-12.5 31q0 23 14.5 27.5t24.5 9.5q13 7 20.5 16.5t7.5 23.5q0 11 -10.5 19.5t-27.5 8.5q-6 0 -14 -1.5t-14 -5.5q-10 5 -17.5 12.5
t-7.5 24.5q0 31 28.5 53.5t66.5 22.5q43 0 68.5 -29t25.5 -77z" />
    <glyph glyph-name="Tbar" unicode="&#x166;" horiz-adv-x="626" 
d="M236 297q-26 0 -43.5 15.5t-17.5 40.5q0 23 17.5 38.5t43.5 15.5h174q26 0 43.5 -15.5t17.5 -38.5q0 -25 -17.5 -40.5t-43.5 -15.5h-174zM312 0q-28 0 -46 17.5t-18 43.5v580h130v-580q0 -26 -18.5 -43.5t-47.5 -17.5zM91 585q-26 0 -43.5 16t-17.5 42t17.5 41.5
t43.5 15.5h444q26 0 43.5 -16t17.5 -42t-17.5 -41.5t-43.5 -15.5h-444z" />
    <glyph glyph-name="tbar" unicode="&#x167;" horiz-adv-x="409" 
d="M71 525h237q24 0 40 -16t16 -40q0 -23 -16 -38.5t-40 -15.5h-237q-24 0 -40 16t-16 40q0 23 16 38.5t40 15.5zM178 650q26 0 42.5 -17.5t16.5 -43.5v-445q0 -14 5.5 -23t15 -13t20.5 -4q12 0 22 4.5t23 4.5q14 0 25.5 -13t11.5 -36q0 -28 -30.5 -46t-65.5 -18
q-21 0 -46.5 3.5t-48 17t-37.5 41.5t-15 77v450q0 26 17.5 43.5t43.5 17.5zM120 205q-26 0 -43.5 15.5t-17.5 40.5q0 23 17.5 38.5t43.5 15.5h174q26 0 43.5 -15.5t17.5 -38.5q0 -25 -17.5 -40.5t-43.5 -15.5h-174z" />
    <glyph glyph-name="Utilde" unicode="&#x168;" horiz-adv-x="705" 
d="M572 701q26 0 42 -17.5t16 -43.5v-362q0 -83 -35.5 -147t-97.5 -100t-144 -36t-144.5 36t-98 100t-35.5 147v362q0 26 18 43.5t46 17.5q23 0 41.5 -17.5t18.5 -43.5v-362q0 -50 21.5 -86.5t57 -56.5t75.5 -20q43 0 80 20t60 56.5t23 86.5v362q0 26 15 43.5t41 17.5z
M218 736q-22 0 -38.5 19.5t-16.5 51.5t28.5 60t82.5 28q34 0 63 -15.5t53.5 -31t42.5 -15.5q11 0 17 5.5t3 15.5q-7 23 5 36t30 13q23 0 39 -19t16 -50q0 -17 -10 -38t-31 -36.5t-54 -15.5q-37 0 -70 15.5t-60 31t-45 15.5q-10 0 -16.5 -5.5t-3.5 -15.5q7 -22 -5 -35.5
t-30 -13.5z" />
    <glyph glyph-name="utilde" unicode="&#x169;" horiz-adv-x="587" 
d="M462 535q26 0 43 -17.5t17 -43.5v-254q0 -106 -59 -168t-170 -62t-169.5 62t-58.5 168v254q0 26 17 43.5t43 17.5t43 -17.5t17 -43.5v-254q0 -61 27 -90.5t81 -29.5q55 0 82 29.5t27 90.5v254q0 26 17 43.5t43 17.5zM160 590q-22 0 -38.5 18t-16.5 50t30 60t93 28
q26 0 47 -10t38.5 -22.5t33 -22.5t28.5 -10q11 0 17 5.5t3 15.5q-7 23 5 36t30 13q23 0 39 -17.5t16 -48.5q0 -17 -11 -38t-36 -36.5t-67 -15.5q-21 0 -42.5 10t-42.5 22.5t-39 22.5t-32 10q-10 0 -16.5 -5.5t-3.5 -15.5q7 -22 -5 -35.5t-30 -13.5z" />
    <glyph glyph-name="Umacron" unicode="&#x16a;" horiz-adv-x="705" 
d="M572 701q26 0 42 -17.5t16 -43.5v-362q0 -83 -35.5 -147t-97.5 -100t-144 -36t-144.5 36t-98 100t-35.5 147v362q0 26 18 43.5t46 17.5q23 0 41.5 -17.5t18.5 -43.5v-362q0 -50 21.5 -86.5t57 -56.5t75.5 -20q43 0 80 20t60 56.5t23 86.5v362q0 26 15 43.5t41 17.5z
M232 750q-50 0 -50 45q0 44 50 44h242q50 0 50 -44q0 -45 -50 -45h-242z" />
    <glyph glyph-name="umacron" unicode="&#x16b;" horiz-adv-x="587" 
d="M462 535q26 0 43 -17.5t17 -43.5v-254q0 -106 -59 -168t-170 -62t-169.5 62t-58.5 168v254q0 26 17 43.5t43 17.5t43 -17.5t17 -43.5v-254q0 -61 27 -90.5t81 -29.5q55 0 82 29.5t27 90.5v254q0 26 17 43.5t43 17.5zM173 600q-50 0 -50 45q0 44 50 44h242q50 0 50 -44
q0 -45 -50 -45h-242z" />
    <glyph glyph-name="Ubreve" unicode="&#x16c;" horiz-adv-x="705" 
d="M572 701q26 0 42 -17.5t16 -43.5v-362q0 -83 -35.5 -147t-97.5 -100t-144 -36t-144.5 36t-98 100t-35.5 147v362q0 26 18 43.5t46 17.5q23 0 41.5 -17.5t18.5 -43.5v-362q0 -50 21.5 -86.5t57 -56.5t75.5 -20q43 0 80 20t60 56.5t23 86.5v362q0 26 15 43.5t41 17.5z
M353 758q-56 0 -97.5 24.5t-60.5 68.5q-10 25 0 40t29 15q21 0 33.5 -9.5t26.5 -26.5q11 -13 27.5 -20t41.5 -7q48 0 69 27q14 17 26.5 26.5t33.5 9.5q20 0 30 -14.5t0 -38.5q-19 -46 -60.5 -70.5t-98.5 -24.5z" />
    <glyph glyph-name="ubreve" unicode="&#x16d;" horiz-adv-x="587" 
d="M462 535q26 0 43 -17.5t17 -43.5v-254q0 -106 -59 -168t-170 -62t-169.5 62t-58.5 168v254q0 26 17 43.5t43 17.5t43 -17.5t17 -43.5v-254q0 -61 27 -90.5t81 -29.5q55 0 82 29.5t27 90.5v254q0 26 17 43.5t43 17.5zM294 570q-37 0 -68.5 10.5t-54.5 31.5t-35 51
q-10 25 0 40t29 15q21 0 34 -9.5t26 -26.5q11 -13 27.5 -20t41.5 -7t41.5 7t27.5 20q14 17 26.5 26.5t33.5 9.5q20 0 30 -14.5t0 -38.5q-12 -30 -35 -51.5t-54.5 -32.5t-69.5 -11z" />
    <glyph glyph-name="Uring" unicode="&#x16e;" horiz-adv-x="705" 
d="M572 701q26 0 42 -17.5t16 -43.5v-362q0 -83 -35.5 -147t-97.5 -100t-144 -36t-144.5 36t-98 100t-35.5 147v362q0 26 18 43.5t46 17.5q23 0 41.5 -17.5t18.5 -43.5v-362q0 -50 21.5 -86.5t57 -56.5t75.5 -20q43 0 80 20t60 56.5t23 86.5v362q0 26 15 43.5t41 17.5z
M353 750q-30 0 -56 15t-42 40t-16 54q0 31 16 56t42 40t56 15t56 -15t42 -40t16 -56q0 -29 -16 -54t-42 -40t-56 -15zM353 820q19 0 31.5 11t12.5 28q0 21 -13.5 31t-30.5 10q-19 0 -31.5 -10.5t-12.5 -30.5q0 -17 12.5 -28t31.5 -11z" />
    <glyph glyph-name="uring" unicode="&#x16f;" horiz-adv-x="587" 
d="M462 535q26 0 43 -17.5t17 -43.5v-254q0 -106 -59 -168t-170 -62t-169.5 62t-58.5 168v254q0 26 17 43.5t43 17.5t43 -17.5t17 -43.5v-254q0 -61 27 -90.5t81 -29.5q55 0 82 29.5t27 90.5v254q0 26 17 43.5t43 17.5zM296 570q-30 0 -56 15t-42 40t-16 54q0 31 16 56
t42 40t56 15t56 -15t42 -40t16 -56q0 -29 -16 -54t-42 -40t-56 -15zM296 640q19 0 31.5 11t12.5 28q0 21 -13.5 31t-30.5 10q-19 0 -31.5 -10.5t-12.5 -30.5q0 -17 12.5 -28t31.5 -11z" />
    <glyph glyph-name="Uhungarumlaut" unicode="&#x170;" horiz-adv-x="705" 
d="M572 701q26 0 42 -17.5t16 -43.5v-362q0 -83 -35.5 -147t-97.5 -100t-144 -36t-144.5 36t-98 100t-35.5 147v362q0 26 18 43.5t46 17.5q23 0 41.5 -17.5t18.5 -43.5v-362q0 -50 21.5 -86.5t57 -56.5t75.5 -20q43 0 80 20t60 56.5t23 86.5v362q0 26 15 43.5t41 17.5z
M261 780q-28 0 -28 25q0 16 12 35l41 64q8 14 19.5 22.5t28.5 8.5q22 0 39 -14.5t17 -34.5q0 -8 -4.5 -17t-13.5 -17l-49 -47q-14 -13 -28 -19t-34 -6zM443 780q-28 0 -28 24q0 16 13 36l42 65q8 13 19 19.5t28 6.5t36.5 -9.5t19.5 -32.5q0 -10 -4.5 -19.5t-13.5 -17.5
l-50 -47q-14 -13 -28 -19t-34 -6z" />
    <glyph glyph-name="uhungarumlaut" unicode="&#x171;" horiz-adv-x="587" 
d="M462 535q26 0 43 -17.5t17 -43.5v-254q0 -106 -59 -168t-170 -62t-169.5 62t-58.5 168v254q0 26 17 43.5t43 17.5t43 -17.5t17 -43.5v-254q0 -61 27 -90.5t81 -29.5q55 0 82 29.5t27 90.5v254q0 26 17 43.5t43 17.5zM197 597q-14 0 -22.5 8t-10.5 19q-1 15 12 36l41 64
q9 14 22 22t30 8q18 0 35 -11t17 -37q0 -8 -4.5 -17t-13.5 -17l-49 -47q-14 -13 -25.5 -20.5t-31.5 -7.5zM379 597q-13 0 -23 8t-10 18q0 17 13 37l42 65q8 13 18.5 19.5t28.5 6.5q19 0 37.5 -9.5t18.5 -34.5q0 -8 -4 -17t-14 -18l-50 -47q-14 -13 -25.5 -20.5t-31.5 -7.5z
" />
    <glyph glyph-name="Uogonek" unicode="&#x172;" horiz-adv-x="705" 
d="M441 -207q-49 0 -84.5 26t-35.5 81q0 41 17 73t44.5 56t59.5 40t62 24l-111 -97q-10 0 -20 -0.5t-20 -0.5q-82 0 -144.5 36t-98 100t-35.5 147v362q0 26 18 43.5t46 17.5t44 -17.5t16 -43.5v-362q0 -50 21.5 -86.5t57 -56.5t75.5 -20q43 0 80 20t60 56.5t23 86.5v362
q0 26 17 43.5t39 17.5q26 0 42 -17.5t16 -43.5v-362q0 -39 -10.5 -83.5t-34.5 -84t-65 -66.5q-33 -22 -55.5 -44t-33.5 -41.5t-11 -36.5q0 -18 9.5 -27t21.5 -9t21 12t21.5 15t19.5 3q18 0 31 -12.5t13 -35.5q0 -16 -16.5 -33.5t-43 -29.5t-56.5 -12z" />
    <glyph glyph-name="uogonek" unicode="&#x173;" horiz-adv-x="587" 
d="M374 -207q-54 0 -92 33t-38 86q0 34 18 64.5t47 56t63 43.5t65 27l-119 -113h-12.5h-12.5q-111 0 -169.5 62t-58.5 168v254q0 26 17 43.5t43 17.5t43 -17.5t17 -43.5v-254q0 -61 27 -90.5t81 -29.5q55 0 82 29.5t27 90.5v254q0 26 17 43.5t43 17.5t43 -17.5t17 -43.5
v-254q0 -50 -13 -95.5t-58 -80.5q-21 -14 -46 -30.5t-43.5 -37t-18.5 -48.5q0 -18 12.5 -30t28.5 -12q6 0 11.5 3t9.5 9q9 12 21.5 15t19.5 3q18 0 31 -12.5t13 -35.5q0 -16 -16.5 -33.5t-43 -29.5t-56.5 -12z" />
    <glyph glyph-name="Wcircumflex" unicode="&#x174;" horiz-adv-x="943" 
d="M862 703q23 0 44 -17.5t21 -47.5q0 -9 -3 -20l-197 -580q-6 -18 -21.5 -27.5t-32.5 -10.5q-17 0 -33.5 10t-25.5 29l-148 336l9 -6l-146 -330q-9 -19 -25.5 -29t-33.5 -10q-16 1 -32 10.5t-22 27.5l-197 580q-3 11 -3 20q0 30 21.5 47.5t44.5 17.5q19 0 35.5 -10
t22.5 -29l159 -482l-22 1l142 341q8 18 23 28.5t34 9.5q19 1 34 -9.5t22 -28.5l130 -326l-16 -10l157 476q6 19 23 29t36 10zM490 811l-84 -49q-17 -10 -29 -16t-22 -6q-13 0 -22 8t-9 17q0 8 3 14t12 16l63 72q13 14 27 21.5t34 7.5h16q20 0 34 -7.5t27 -21.5l63 -72
q9 -10 12 -16t3 -14q0 -9 -8.5 -17t-22.5 -8q-10 0 -22 6t-29 16l-84 49h38z" />
    <glyph glyph-name="wcircumflex" unicode="&#x175;" horiz-adv-x="768" 
d="M681 535q23 0 40 -17.5t17 -44.5q0 -7 -1 -12.5t-3 -10.5l-153 -412q-7 -20 -25 -30.5t-38 -7.5q-34 2 -51 38l-99 285l26 -1l-93 -284q-17 -36 -51 -38q-19 -3 -37.5 7.5t-25.5 30.5l-153 412q-4 11 -4 23q0 24 16 43t44 19q19 0 34 -9t21 -29l121 -328l-25 2l91 247
q16 37 55 37q22 0 33.5 -9.5t18.5 -27.5l91 -247l-30 -4l123 330q12 38 58 38zM406 687l-77 -64q-13 -11 -21.5 -17.5t-27.5 -6.5q-13 0 -21.5 7.5t-8.5 17.5q0 8 2 14.5t10 16.5l49 62q23 29 61 29h36q20 0 31.5 -6t22.5 -23l44 -62q8 -10 10 -16.5t2 -14.5q0 -10 -8 -17.5
t-22 -7.5q-19 0 -27 6.5t-22 17.5l-84 74z" />
    <glyph glyph-name="Ycircumflex" unicode="&#x176;" horiz-adv-x="596" 
d="M521 703q23 0 41.5 -17.5t18.5 -44.5q0 -9 -2.5 -18.5t-8.5 -18.5l-227 -325l18 69v-287q0 -26 -17.5 -43.5t-40.5 -17.5q-25 0 -42.5 17.5t-17.5 43.5v279l8 -32l-216 287q-10 13 -14 25t-4 22q0 27 21 44t43 17q28 0 49 -28l192 -265l-28 4l177 259q21 30 50 30z
M316 811l-84 -49q-17 -10 -29 -16t-22 -6q-13 0 -22 8t-9 17q0 8 3 14t12 16l63 72q13 14 27 21.5t34 7.5h16q20 0 34 -7.5t27 -21.5l63 -72q9 -10 12 -16t3 -14q0 -9 -8.5 -17t-22.5 -8q-10 0 -22 6t-29 16l-84 49h38z" />
    <glyph glyph-name="ycircumflex" unicode="&#x177;" horiz-adv-x="587" 
d="M462 535q26 0 43 -17.5t17 -43.5v-425q0 -92 -34.5 -146.5t-92.5 -78.5t-130 -24q-32 0 -68 5t-59 15q-30 13 -41.5 32.5t-4.5 41.5q9 29 29 39.5t42 2.5q16 -5 42 -15.5t60 -10.5q46 0 76.5 12.5t46 42t15.5 80.5v67l21 -24q-17 -33 -42.5 -54.5t-60.5 -32.5t-80 -11
q-53 0 -92.5 24.5t-61.5 68t-22 99.5v292q0 26 17 43.5t43 17.5t43 -17.5t17 -43.5v-256q0 -65 28.5 -91.5t79.5 -26.5q35 0 59 13.5t37 40t13 64.5v256q0 26 17 43.5t43 17.5zM316 687l-77 -64q-13 -11 -21.5 -17.5t-27.5 -6.5q-13 0 -21.5 7.5t-8.5 17.5q0 8 2 14.5
t10 16.5l49 62q23 29 61 29h36q20 0 31.5 -6t22.5 -23l44 -62q8 -10 10 -16.5t2 -14.5q0 -10 -8 -17.5t-22 -7.5q-19 0 -27 6.5t-22 17.5l-84 74z" />
    <glyph glyph-name="Ydieresis" unicode="&#x178;" horiz-adv-x="596" 
d="M521 703q23 0 41.5 -17.5t18.5 -44.5q0 -9 -2.5 -18.5t-8.5 -18.5l-227 -325l18 69v-287q0 -26 -17.5 -43.5t-40.5 -17.5q-25 0 -42.5 17.5t-17.5 43.5v279l8 -32l-216 287q-10 13 -14 25t-4 22q0 27 21 44t43 17q28 0 49 -28l192 -265l-28 4l177 259q21 30 50 30z
M396 760q-31 0 -45.5 11t-14.5 39v18q0 29 15 39.5t45 10.5q34 0 48.5 -11t14.5 -39v-18q0 -29 -15 -39.5t-48 -10.5zM197 760q-31 0 -45.5 11t-14.5 39v18q0 29 15.5 39.5t45.5 10.5q33 0 47.5 -11t14.5 -39v-18q0 -29 -15 -39.5t-48 -10.5z" />
    <glyph glyph-name="Zacute" unicode="&#x179;" horiz-adv-x="648" 
d="M548 700q22 0 43.5 -16t21.5 -43q0 -19 -14 -38l-383 -492l-12 4h334q26 0 43.5 -15.5t17.5 -41.5q0 -25 -17.5 -41.5t-43.5 -16.5h-439q-26 0 -45 18.5t-19 40.5q0 19 14 38l384 494l9 -6h-303q-26 0 -43.5 16t-17.5 42t17.5 41.5t43.5 15.5h409zM325 738
q-19 0 -30.5 10t-11.5 26q0 7 3.5 13.5t10.5 13.5l86 76q11 9 23.5 15.5t25.5 6.5q17 0 35 -13t18 -36q0 -15 -9.5 -29.5t-27.5 -23.5l-100 -53q-6 -4 -12 -5t-11 -1z" />
    <glyph glyph-name="zacute" unicode="&#x17a;" horiz-adv-x="484" 
d="M406 110q24 0 40 -15.5t16 -39.5q0 -23 -16 -39t-40 -16h-322q-25 0 -40 18t-14 36q1 15 4 26.5t15 26.5l249 322l-2 -14h-203q-24 0 -40 16t-16 40q0 23 16 38.5t40 15.5h308q23 0 39 -17t14 -43q-1 -10 -3.5 -20t-13.5 -24l-245 -317v6h214zM247 569q-8 0 -20.5 8.5
t-11.5 24.5q0 9 6 19l58 102q9 16 23 28t32 12q28 0 41 -14.5t12 -35.5q-1 -10 -5.5 -21t-13.5 -22l-76 -84q-10 -11 -22 -14t-23 -3z" />
    <glyph glyph-name="Zdotaccent" unicode="&#x17b;" horiz-adv-x="648" 
d="M548 700q22 0 43.5 -16t21.5 -43q0 -19 -14 -38l-383 -492l-12 4h334q26 0 43.5 -15.5t17.5 -41.5q0 -25 -17.5 -41.5t-43.5 -16.5h-439q-26 0 -45 18.5t-19 40.5q0 19 14 38l384 494l9 -6h-303q-26 0 -43.5 16t-17.5 42t17.5 41.5t43.5 15.5h409zM322 740q-33 0 -47 11
t-14 39v19q0 29 15.5 39.5t46.5 10.5q36 0 50 -10.5t14 -39.5v-19q0 -29 -15 -39.5t-50 -10.5z" />
    <glyph glyph-name="zdotaccent" unicode="&#x17c;" horiz-adv-x="484" 
d="M406 110q24 0 40 -15.5t16 -39.5q0 -23 -16 -39t-40 -16h-322q-25 0 -40 18t-14 36q1 15 4 26.5t15 26.5l249 322l-2 -14h-203q-24 0 -40 16t-16 40q0 23 16 38.5t40 15.5h308q23 0 39 -17t14 -43q-1 -10 -3.5 -20t-13.5 -24l-245 -317v6h214zM241 600q-34 0 -48 11
t-14 39v19q0 29 15.5 39.5t47.5 10.5q35 0 49 -11t14 -39v-19q0 -29 -15 -39.5t-49 -10.5z" />
    <glyph glyph-name="Zcaron" unicode="&#x17d;" horiz-adv-x="648" 
d="M548 700q22 0 43.5 -16t21.5 -43q0 -19 -14 -38l-383 -492l-12 4h334q26 0 43.5 -15.5t17.5 -41.5q0 -25 -17.5 -41.5t-43.5 -16.5h-439q-26 0 -45 18.5t-19 40.5q0 19 14 38l384 494l9 -6h-303q-26 0 -43.5 16t-17.5 42t17.5 41.5t43.5 15.5h409zM306 822l84 54
q17 11 29 15.5t22 4.5q14 0 22.5 -8t8.5 -17q0 -7 -3 -13t-12 -17l-63 -72q-13 -14 -27 -21.5t-34 -7.5h-16q-20 0 -34 7.5t-27 21.5l-63 72q-9 11 -12 17t-3 13q0 9 9 17t22 8q20 0 51 -20l84 -54h-38z" />
    <glyph glyph-name="zcaron" unicode="&#x17e;" horiz-adv-x="484" 
d="M406 110q24 0 40 -15.5t16 -39.5q0 -23 -16 -39t-40 -16h-322q-25 0 -40 18t-14 36q1 15 4 26.5t15 26.5l249 322l-2 -14h-203q-24 0 -40 16t-16 40q0 23 16 38.5t40 15.5h308q23 0 39 -17t14 -43q-1 -10 -3.5 -20t-13.5 -24l-245 -317v6h214zM222 600q-38 0 -61 30
l-44 55q-12 16 -12 32q0 13 10.5 21t30.5 8q18 0 45 -23l65 -56l-26 3l61 53q14 12 25 17.5t30 5.5q14 0 23.5 -7.5t9.5 -18.5q0 -7 -3.5 -15.5t-12.5 -19.5l-44 -55q-23 -30 -61 -30h-36z" />
    <glyph glyph-name="uni018F" unicode="&#x18f;" horiz-adv-x="776" 
d="M388 -10q-63 0 -123.5 21.5t-109 62t-79.5 99t-36 132.5v25q0 37 23.5 55.5t51.5 18.5h569l11 -120h-526q10 -38 30.5 -69.5t49.5 -55t64.5 -36.5t74.5 -13q46 0 86 15.5t70.5 46.5t47.5 76t17 105q0 65 -17.5 110t-48 73t-71 41t-87.5 13q-48 0 -94 -12t-89 -46
q-19 -15 -41.5 -15t-40.5 16q-20 17 -21.5 43t20.5 45q58 50 121.5 69.5t144.5 19.5q72 0 135.5 -28t112 -77.5t76 -114.5t27.5 -140t-27 -140t-75 -114.5t-111 -77.5t-135 -28z" />
    <glyph glyph-name="florin" unicode="&#x192;" horiz-adv-x="487" 
d="M84 -5q-23 0 -44 10.5t-21 42.5q0 26 13 37t32 11q9 0 18.5 -2t15.5 -2q19 0 28.5 22.5t14.5 48.5l70 387q14 75 54 115t121 40q15 0 28 -1t27 -4q26 -5 36.5 -19t10.5 -31q0 -21 -13 -35.5t-33 -13.5q-8 1 -16.5 1h-16.5q-35 0 -54 -18t-27 -59l-68 -380
q-14 -80 -56.5 -115t-119.5 -35zM134 356q-22 0 -36.5 14.5t-14.5 36.5t14.5 36t36.5 14h258q23 0 37 -14t14 -36t-14 -36.5t-37 -14.5h-258z" />
    <glyph glyph-name="uni019D" unicode="&#x19d;" horiz-adv-x="735" 
d="M30 -197q-24 1 -39.5 17.5t-15.5 39.5q0 31 12.5 45t38.5 21q24 7 34 22t12.5 35t2.5 42v614q0 26 17.5 43.5t43.5 17.5q14 0 29 -5.5t22 -16.5l381 -486l-22 -12v464q0 24 16.5 40t41.5 16q24 0 40 -16t16 -40v-583q0 -26 -17.5 -43.5t-43.5 -17.5q-13 0 -26.5 4.5
t-20.5 12.5l-393 499l30 16v-542q0 -55 -15 -90.5t-37 -55.5t-45 -28.5t-40.5 -10.5t-21.5 -2z" />
    <glyph glyph-name="Ohorn" unicode="&#x1a0;" horiz-adv-x="759" 
d="M719 350q0 -75 -25 -140t-70.5 -114.5t-108 -77.5t-136.5 -28t-136 28t-107.5 77.5t-70.5 114.5t-25 140t25 140t70.5 114.5t107.5 77.5t136 28t136.5 -28t108 -77.5t70.5 -114.5t25 -140zM589 350q0 67 -27 121.5t-74 86.5t-109 32t-109 -32t-73.5 -86t-26.5 -122
q0 -67 26.5 -121.5t73.5 -86.5t109 -32t109 32t74 86.5t27 121.5zM453 597v100q39 0 62 15t23 47q0 18 13 35.5t38 17.5q28 0 38.5 -18.5t10.5 -34.5q0 -43 -19 -80t-59.5 -59.5t-106.5 -22.5z" />
    <glyph glyph-name="ohorn" unicode="&#x1a1;" horiz-adv-x="624" 
d="M584 267q0 -82 -36.5 -144.5t-98 -97.5t-137.5 -35t-137.5 35t-98 97.5t-36.5 144.5t36.5 144.5t98 98t137.5 35.5t137.5 -35.5t98 -98t36.5 -144.5zM464 267q0 51 -20.5 88.5t-55 58.5t-76.5 21t-76.5 -21t-55 -58.5t-20.5 -88.5q0 -50 20.5 -87.5t55 -58.5t76.5 -21
t76.5 21t55 58.5t20.5 87.5zM400 432v100q39 0 62 15t23 47q0 18 13 35.5t38 17.5q28 0 38.5 -18.5t10.5 -34.5q0 -43 -19 -80t-59.5 -59.5t-106.5 -22.5z" />
    <glyph glyph-name="Uhorn" unicode="&#x1af;" horiz-adv-x="705" 
d="M572 701q26 0 42 -17.5t16 -43.5v-362q0 -83 -35.5 -147t-97.5 -100t-144 -36t-144.5 36t-98 100t-35.5 147v362q0 26 18 43.5t46 17.5q23 0 41.5 -17.5t18.5 -43.5v-362q0 -50 21.5 -86.5t57 -56.5t75.5 -20q43 0 80 20t60 56.5t23 86.5v362q0 26 15 43.5t41 17.5z
M560 600v100q39 0 62 15t23 47q0 18 13 35.5t38 17.5q28 0 38.5 -18.5t10.5 -34.5q0 -43 -19 -80t-59.5 -59.5t-106.5 -22.5z" />
    <glyph glyph-name="uhorn" unicode="&#x1b0;" horiz-adv-x="587" 
d="M462 535q26 0 43 -17.5t17 -43.5v-254q0 -106 -59 -168t-170 -62t-169.5 62t-58.5 168v254q0 26 17 43.5t43 17.5t43 -17.5t17 -43.5v-254q0 -61 27 -90.5t81 -29.5q55 0 82 29.5t27 90.5v254q0 26 17 43.5t43 17.5zM450 434v100q39 0 62 15t23 47q0 18 13 35.5t38 17.5
q28 0 38.5 -18.5t10.5 -34.5q0 -43 -19 -80t-59.5 -59.5t-106.5 -22.5z" />
    <glyph glyph-name="uni01C4" unicode="&#x1c4;" horiz-adv-x="1363" 
d="M375 700q72 0 128 -27t94.5 -75.5t58 -112t19.5 -135.5q0 -97 -35 -176.5t-101.5 -126.5t-163.5 -47h-239q-26 0 -43.5 17.5t-17.5 43.5v578q0 26 17.5 43.5t43.5 17.5h239zM365 115q63 0 103 32.5t58.5 86t18.5 116.5q0 47 -10.5 89.5t-32.5 75t-56 51.5t-81 19h-175
l10 9v-490l-6 11h171zM1263 700q22 0 43.5 -16t21.5 -43q0 -19 -14 -38l-383 -492l-12 4h334q26 0 43.5 -15.5t17.5 -41.5q0 -25 -17.5 -41.5t-43.5 -16.5h-439q-26 0 -45 18.5t-19 40.5q0 19 14 38l384 494l9 -6h-303q-26 0 -43.5 16t-17.5 42t17.5 41.5t43.5 15.5h409z
M1021 822l84 54q17 11 29 15.5t22 4.5q14 0 22.5 -8t8.5 -17q0 -7 -3 -13t-12 -17l-63 -72q-13 -14 -27 -21.5t-34 -7.5h-16q-20 0 -34 7.5t-27 21.5l-63 72q-9 11 -12 17t-3 13q0 9 9 17t22 8q20 0 51 -20l84 -54h-38z" />
    <glyph glyph-name="uni01C5" unicode="&#x1c5;" horiz-adv-x="1199" 
d="M375 700q72 0 128 -27t94.5 -75.5t58 -112t19.5 -135.5q0 -97 -35 -176.5t-101.5 -126.5t-163.5 -47h-239q-26 0 -43.5 17.5t-17.5 43.5v578q0 26 17.5 43.5t43.5 17.5h239zM365 115q63 0 103 32.5t58.5 86t18.5 116.5q0 47 -10.5 89.5t-32.5 75t-56 51.5t-81 19h-175
l10 9v-490l-6 11h171zM1121 110q24 0 40 -15.5t16 -39.5q0 -23 -16 -39t-40 -16h-322q-25 0 -40 18t-14 36q1 15 4 26.5t15 26.5l249 322l-2 -14h-203q-24 0 -40 16t-16 40q0 23 16 38.5t40 15.5h308q23 0 39 -17t14 -43q-1 -10 -3.5 -20t-13.5 -24l-245 -317v6h214z
M937 600q-38 0 -61 30l-44 55q-12 16 -12 32q0 13 10.5 21t30.5 8q18 0 45 -23l65 -56l-26 3l61 53q14 12 25 17.5t30 5.5q14 0 23.5 -7.5t9.5 -18.5q0 -7 -3.5 -15.5t-12.5 -19.5l-44 -55q-23 -30 -61 -30h-36z" />
    <glyph glyph-name="uni01C6" unicode="&#x1c6;" horiz-adv-x="1112" 
d="M503 740q26 0 43 -17t17 -44v-618q0 -26 -17 -43.5t-43 -17.5t-43 17.5t-17 43.5v49l22 -9q0 -13 -14 -31.5t-38 -36.5t-56.5 -30.5t-70.5 -12.5q-69 0 -125 35.5t-88.5 98t-32.5 143.5q0 82 32.5 144.5t87.5 98t122 35.5q43 0 79 -13t62.5 -33t41 -40.5t14.5 -34.5
l-36 -13v268q0 26 17 43.5t43 17.5zM301 100q44 0 77 22t51.5 60t18.5 85q0 48 -18.5 86t-51.5 60t-77 22q-43 0 -76 -22t-51.5 -60t-18.5 -86q0 -47 18.5 -85t51.5 -60t76 -22zM1034 110q24 0 40 -15.5t16 -39.5q0 -23 -16 -39t-40 -16h-322q-25 0 -40 18t-14 36
q1 15 4 26.5t15 26.5l249 322l-2 -14h-203q-24 0 -40 16t-16 40q0 23 16 38.5t40 15.5h308q23 0 39 -17t14 -43q-1 -10 -3.5 -20t-13.5 -24l-245 -317v6h214zM850 600q-38 0 -61 30l-44 55q-12 16 -12 32q0 13 10.5 21t30.5 8q18 0 45 -23l65 -56l-26 3l61 53q14 12 25 17.5
t30 5.5q14 0 23.5 -7.5t9.5 -18.5q0 -7 -3.5 -15.5t-12.5 -19.5l-44 -55q-23 -30 -61 -30h-36z" />
    <glyph glyph-name="uni01C7" unicode="&#x1c7;" horiz-adv-x="1114" 
d="M461 117q26 0 43.5 -16.5t17.5 -42.5q0 -25 -17.5 -41.5t-43.5 -16.5h-325q-26 0 -43.5 17.5t-17.5 43.5v578q0 26 18 43.5t46 17.5q24 0 42.5 -17.5t18.5 -43.5v-539l-22 17h283zM800 -10q-57 0 -106 23t-80 66q-12 18 -12 35q0 25 19.5 42t38.5 17q15 0 29.5 -9
t26.5 -21q20 -18 39.5 -25.5t44.5 -7.5q30 0 56 15t42 40t16 54v420q0 26 19 43.5t44 17.5q28 0 45 -17.5t17 -43.5v-420q0 -61 -32 -113t-86 -84t-121 -32z" />
    <glyph glyph-name="uni01C8" unicode="&#x1c8;" horiz-adv-x="837" 
d="M461 117q26 0 43.5 -16.5t17.5 -42.5q0 -25 -17.5 -41.5t-43.5 -16.5h-325q-26 0 -43.5 17.5t-17.5 43.5v578q0 26 18 43.5t46 17.5q24 0 42.5 -17.5t18.5 -43.5v-539l-22 17h283zM762 -10q0 -57 -22 -98.5t-59 -64.5t-83 -23q-25 0 -40.5 16.5t-15.5 39.5v11
q0 22 14.5 35t36.5 20q24 8 34 22.5t12.5 34.5t2.5 42v449q0 26 17 43.5t43 17.5t43 -17.5t17 -43.5v-484zM700 600q-34 0 -48 11t-14 39v19q0 29 15.5 39.5t47.5 10.5q35 0 49 -11t14 -39v-19q0 -29 -15 -39.5t-49 -10.5z" />
    <glyph glyph-name="uni01C9" unicode="&#x1c9;" horiz-adv-x="531" 
d="M195 61q0 -26 -17.5 -43.5t-43.5 -17.5q-25 0 -42 17.5t-17 43.5v618q0 26 17.5 43.5t43.5 17.5t42.5 -17.5t16.5 -43.5v-618zM456 -10q0 -57 -22 -98.5t-59 -64.5t-83 -23q-25 0 -40.5 16.5t-15.5 39.5v11q0 22 14.5 35t36.5 20q24 8 34 22.5t12.5 34.5t2.5 42v449
q0 26 17 43.5t43 17.5t43 -17.5t17 -43.5v-484zM394 600q-34 0 -48 11t-14 39v19q0 29 15.5 39.5t47.5 10.5q35 0 49 -11t14 -39v-19q0 -29 -15 -39.5t-49 -10.5z" />
    <glyph glyph-name="uni01CA" unicode="&#x1ca;" horiz-adv-x="1287" 
d="M606 700q24 0 39 -16t15 -40v-583q0 -26 -17.5 -43.5t-43.5 -17.5q-13 0 -26.5 4.5t-20.5 12.5l-393 499l26 16v-476q0 -24 -15.5 -40t-40.5 -16q-24 0 -39 16t-15 40v583q0 26 17.5 43.5t43.5 17.5q14 0 29 -5.5t22 -16.5l381 -486l-17 -12v464q0 24 15 40t40 16z
M973 -10q-57 0 -106 23t-80 66q-12 18 -12 35q0 25 19.5 42t38.5 17q15 0 29.5 -9t26.5 -21q20 -18 39.5 -25.5t44.5 -7.5q30 0 56 15t42 40t16 54v420q0 26 19 43.5t44 17.5q28 0 45 -17.5t17 -43.5v-420q0 -61 -32 -113t-86 -84t-121 -32z" />
    <glyph glyph-name="uni01CB" unicode="&#x1cb;" horiz-adv-x="1010" 
d="M606 700q24 0 39 -16t15 -40v-583q0 -26 -17.5 -43.5t-43.5 -17.5q-13 0 -26.5 4.5t-20.5 12.5l-393 499l26 16v-476q0 -24 -15.5 -40t-40.5 -16q-24 0 -39 16t-15 40v583q0 26 17.5 43.5t43.5 17.5q14 0 29 -5.5t22 -16.5l381 -486l-17 -12v464q0 24 15 40t40 16z
M935 -10q0 -57 -22 -98.5t-59 -64.5t-83 -23q-25 0 -40.5 16.5t-15.5 39.5v11q0 22 14.5 35t36.5 20q24 8 34 22.5t12.5 34.5t2.5 42v449q0 26 17 43.5t43 17.5t43 -17.5t17 -43.5v-484zM873 600q-34 0 -48 11t-14 39v19q0 29 15.5 39.5t47.5 10.5q35 0 49 -11t14 -39v-19
q0 -29 -15 -39.5t-49 -10.5z" />
    <glyph glyph-name="uni01CC" unicode="&#x1cc;" horiz-adv-x="871" 
d="M351 545q74 0 112.5 -31t53 -82.5t14.5 -114.5v-256q0 -26 -17 -43.5t-43 -17.5t-43 17.5t-17 43.5v256q0 33 -8.5 59.5t-30.5 42.5t-63 16q-40 0 -67.5 -16t-42 -42.5t-14.5 -59.5v-256q0 -26 -17 -43.5t-43 -17.5t-43 17.5t-17 43.5v413q0 26 17 43.5t43 17.5t43 -17.5
t17 -43.5v-43l-15 3q9 17 26 36.5t40 36.5t52 27.5t63 10.5zM796 -10q0 -57 -22 -98.5t-59 -64.5t-83 -23q-25 0 -40.5 16.5t-15.5 39.5v11q0 22 14.5 35t36.5 20q24 8 34 22.5t12.5 34.5t2.5 42v449q0 26 17 43.5t43 17.5t43 -17.5t17 -43.5v-484zM734 600q-34 0 -48 11
t-14 39v19q0 29 15.5 39.5t47.5 10.5q35 0 49 -11t14 -39v-19q0 -29 -15 -39.5t-49 -10.5z" />
    <glyph glyph-name="uni01CD" unicode="&#x1cd;" horiz-adv-x="639" 
d="M332 543l-216 -508q-7 -19 -21.5 -29.5t-31.5 -10.5q-27 0 -40 15t-13 37q0 9 3 19l249 598q8 20 24.5 31t35.5 9q18 0 33.5 -10.5t22.5 -29.5l246 -586q5 -13 5 -24q0 -27 -17.5 -43t-38.5 -16q-18 0 -32.5 11t-22.5 30l-215 501zM147 157l55 115h270l19 -115h-344z
M304 822l84 54q17 11 29 15.5t22 4.5q14 0 22.5 -8t8.5 -17q0 -7 -3 -13t-12 -17l-63 -72q-13 -14 -27 -21.5t-34 -7.5h-16q-20 0 -34 7.5t-27 21.5l-63 72q-9 11 -12 17t-3 13q0 9 9 17t22 8q20 0 51 -20l84 -54h-38z" />
    <glyph glyph-name="uni01CE" unicode="&#x1ce;" horiz-adv-x="628" 
d="M503 545q26 0 43 -17t17 -44v-423q0 -26 -17 -43.5t-43 -17.5t-43 17.5t-17 43.5v49l22 -9q0 -13 -14 -31.5t-38 -36.5t-56.5 -30.5t-70.5 -12.5q-69 0 -125 35.5t-88.5 98t-32.5 143.5q0 82 32.5 144.5t87.5 98t122 35.5q43 0 79 -13t62.5 -33t41 -40.5t14.5 -34.5
l-36 -13v73q0 26 17 43.5t43 17.5zM301 100q44 0 77 22t51.5 60t18.5 85q0 48 -18.5 86t-51.5 60t-77 22q-43 0 -76 -22t-51.5 -60t-18.5 -86q0 -47 18.5 -85t51.5 -60t76 -22zM287 600q-38 0 -61 30l-44 55q-12 16 -12 32q0 13 10.5 21t30.5 8q18 0 45 -23l65 -56l-26 3
l61 53q14 12 25 17.5t30 5.5q14 0 23.5 -7.5t9.5 -18.5q0 -7 -3.5 -15.5t-12.5 -19.5l-44 -55q-23 -30 -61 -30h-36z" />
    <glyph glyph-name="uni01CF" unicode="&#x1cf;" horiz-adv-x="275" 
d="M200 61q0 -26 -19 -43.5t-44 -17.5q-28 0 -45 17.5t-17 43.5v578q0 26 18 43.5t46 17.5q24 0 42.5 -17.5t18.5 -43.5v-578zM122 822l84 54q17 11 29 15.5t22 4.5q14 0 22.5 -8t8.5 -17q0 -7 -3 -13t-12 -17l-63 -72q-13 -14 -27 -21.5t-34 -7.5h-16q-20 0 -34 7.5
t-27 21.5l-63 72q-9 11 -12 17t-3 13q0 9 9 17t22 8q20 0 51 -20l84 -54h-38z" />
    <glyph glyph-name="uni01D0" unicode="&#x1d0;" horiz-adv-x="236" 
d="M178 61q0 -26 -17 -43.5t-43 -17.5t-43 17.5t-17 43.5v413q0 26 17 43.5t43 17.5t43 -17.5t17 -43.5v-413zM98 600q-38 0 -61 30l-44 55q-12 16 -12 32q0 13 10.5 21t30.5 8q18 0 45 -23l65 -56l-26 3l61 53q14 12 25 17.5t30 5.5q14 0 23.5 -7.5t9.5 -18.5
q0 -7 -3.5 -15.5t-12.5 -19.5l-44 -55q-23 -30 -61 -30h-36z" />
    <glyph glyph-name="uni01D1" unicode="&#x1d1;" horiz-adv-x="759" 
d="M719 350q0 -75 -25 -140t-70.5 -114.5t-108 -77.5t-136.5 -28t-136 28t-107.5 77.5t-70.5 114.5t-25 140t25 140t70.5 114.5t107.5 77.5t136 28t136.5 -28t108 -77.5t70.5 -114.5t25 -140zM589 350q0 67 -27 121.5t-74 86.5t-109 32t-109 -32t-73.5 -86t-26.5 -122
q0 -67 26.5 -121.5t73.5 -86.5t109 -32t109 32t74 86.5t27 121.5zM362 822l84 54q17 11 29 15.5t22 4.5q14 0 22.5 -8t8.5 -17q0 -7 -3 -13t-12 -17l-63 -72q-13 -14 -27 -21.5t-34 -7.5h-16q-20 0 -34 7.5t-27 21.5l-63 72q-9 11 -12 17t-3 13q0 9 9 17t22 8q20 0 51 -20
l84 -54h-38z" />
    <glyph glyph-name="uni01D2" unicode="&#x1d2;" horiz-adv-x="624" 
d="M584 267q0 -82 -36.5 -144.5t-98 -97.5t-137.5 -35t-137.5 35t-98 97.5t-36.5 144.5t36.5 144.5t98 98t137.5 35.5t137.5 -35.5t98 -98t36.5 -144.5zM464 267q0 51 -20.5 88.5t-55 58.5t-76.5 21t-76.5 -21t-55 -58.5t-20.5 -88.5q0 -50 20.5 -87.5t55 -58.5t76.5 -21
t76.5 21t55 58.5t20.5 87.5zM292 600q-38 0 -61 30l-44 55q-12 16 -12 32q0 13 10.5 21t30.5 8q18 0 45 -23l65 -56l-26 3l61 53q14 12 25 17.5t30 5.5q14 0 23.5 -7.5t9.5 -18.5q0 -7 -3.5 -15.5t-12.5 -19.5l-44 -55q-23 -30 -61 -30h-36z" />
    <glyph glyph-name="uni01D3" unicode="&#x1d3;" horiz-adv-x="705" 
d="M572 701q26 0 42 -17.5t16 -43.5v-362q0 -83 -35.5 -147t-97.5 -100t-144 -36t-144.5 36t-98 100t-35.5 147v362q0 26 18 43.5t46 17.5q23 0 41.5 -17.5t18.5 -43.5v-362q0 -50 21.5 -86.5t57 -56.5t75.5 -20q43 0 80 20t60 56.5t23 86.5v362q0 26 15 43.5t41 17.5z
M335 822l84 54q17 11 29 15.5t22 4.5q14 0 22.5 -8t8.5 -17q0 -7 -3 -13t-12 -17l-63 -72q-13 -14 -27 -21.5t-34 -7.5h-16q-20 0 -34 7.5t-27 21.5l-63 72q-9 11 -12 17t-3 13q0 9 9 17t22 8q20 0 51 -20l84 -54h-38z" />
    <glyph glyph-name="uni01D4" unicode="&#x1d4;" horiz-adv-x="587" 
d="M462 535q26 0 43 -17.5t17 -43.5v-254q0 -106 -59 -168t-170 -62t-169.5 62t-58.5 168v254q0 26 17 43.5t43 17.5t43 -17.5t17 -43.5v-254q0 -61 27 -90.5t81 -29.5q55 0 82 29.5t27 90.5v254q0 26 17 43.5t43 17.5zM274 600q-38 0 -61 30l-44 55q-12 16 -12 32
q0 13 10.5 21t30.5 8q18 0 45 -23l65 -56l-26 3l61 53q14 12 25 17.5t30 5.5q14 0 23.5 -7.5t9.5 -18.5q0 -7 -3.5 -15.5t-12.5 -19.5l-44 -55q-23 -30 -61 -30h-36z" />
    <glyph glyph-name="Gcaron" unicode="&#x1e6;" horiz-adv-x="696" 
d="M405 -10q-76 0 -142 28t-116 77.5t-78.5 114.5t-28.5 140t28.5 140t78.5 114.5t116 77.5t142 28q47 0 91 -10t81 -30q15 -8 22.5 -21.5t7.5 -27.5q0 -24 -16 -43t-41 -19q-8 0 -16.5 2t-16.5 6q-25 11 -53 17t-59 6q-65 0 -118.5 -32.5t-85 -87t-31.5 -120.5
q0 -65 31.5 -120t85 -87.5t118.5 -32.5q30 0 66 6t59 16l-9 -30v171l17 -15h-111q-26 0 -43.5 17t-17.5 43t17.5 43t43.5 17h164q26 0 43 -17.5t17 -43.5v-212q0 -20 -9.5 -33t-21.5 -21q-46 -28 -100.5 -44.5t-114.5 -16.5zM370 822l84 54q17 11 29 15.5t22 4.5
q14 0 22.5 -8t8.5 -17q0 -7 -3 -13t-12 -17l-63 -72q-13 -14 -27 -21.5t-34 -7.5h-16q-20 0 -34 7.5t-27 21.5l-63 72q-9 11 -12 17t-3 13q0 9 9 17t22 8q20 0 51 -20l84 -54h-38z" />
    <glyph glyph-name="gcaron" unicode="&#x1e7;" horiz-adv-x="638" 
d="M287 545q42 0 77 -13t60.5 -33t40 -40.5t14.5 -34.5l-26 -13v73q0 26 17 43.5t43 17.5t43 -17t17 -44v-445q0 -87 -37.5 -139.5t-98.5 -76t-131 -23.5q-20 0 -52 5t-61 12t-44 13q-30 13 -41.5 32.5t-4.5 41.5q9 29 29 39.5t42 2.5q10 -3 33 -12t50.5 -16.5t48.5 -7.5
q75 0 111 30t36 83v87l12 -9q0 -13 -13.5 -31.5t-37 -36.5t-55.5 -30.5t-68 -12.5q-71 0 -128 35.5t-90 98t-33 143.5q0 82 33 144.5t89 98t125 35.5zM306 435q-45 0 -79 -22t-53 -60t-19 -86q0 -47 19 -85t53 -60t79 -22q46 0 80 22t53 60t19 85q0 48 -19 86t-53 60t-80 22
zM302 600q-38 0 -61 30l-44 55q-12 16 -12 32q0 13 10.5 21t30.5 8q18 0 45 -23l65 -56l-26 3l61 53q14 12 25 17.5t30 5.5q14 0 23.5 -7.5t9.5 -18.5q0 -7 -3.5 -15.5t-12.5 -19.5l-44 -55q-23 -30 -61 -30h-36z" />
    <glyph glyph-name="uni01EA" unicode="&#x1ea;" horiz-adv-x="759" 
d="M408 -207q-49 0 -84.5 26t-35.5 81q0 41 17 70.5t44.5 50t59.5 33.5t62 21l22 -65q-41 -11 -64 -25.5t-32.5 -30t-9.5 -32.5q0 -18 9.5 -27t21.5 -9q6 0 11.5 3t9.5 9q9 12 21.5 15t19.5 3q18 0 31 -12.5t13 -35.5q0 -16 -16.5 -33.5t-43 -29.5t-56.5 -12zM719 350
q0 -75 -25 -140t-70.5 -114.5t-108 -77.5t-136.5 -28t-136 28t-107.5 77.5t-70.5 114.5t-25 140t25 140t70.5 114.5t107.5 77.5t136 28t136.5 -28t108 -77.5t70.5 -114.5t25 -140zM589 350q0 67 -27 121.5t-74 86.5t-109 32t-109 -32t-73.5 -86t-26.5 -122
q0 -67 26.5 -121.5t73.5 -86.5t109 -32t109 32t74 86.5t27 121.5z" />
    <glyph glyph-name="uni01EB" unicode="&#x1eb;" horiz-adv-x="614" 
d="M459 267q0 51 -20.5 88.5t-55 58.5t-76.5 21t-76.5 -21t-55 -58.5t-20.5 -88.5q0 -50 20.5 -87.5t55 -58.5t76.5 -21t76.5 21t55 58.5t20.5 87.5zM374 -207q-51 0 -88 28t-37 89q0 46 17.5 78.5t46 54.5t61.5 36t63 23q-32 -28 -65 -56t-65 -56q-76 0 -137.5 35t-98 97.5
t-36.5 144.5t36.5 144.5t98 98t137.5 35.5t137.5 -35.5t98 -98t36.5 -144.5q0 -53 -15.5 -100t-44.5 -82.5t-69 -56.5q-44 -23 -73 -44t-29 -52q0 -23 11.5 -34.5t24.5 -11.5q12 0 21 12t21.5 15t19.5 3q18 0 31 -12.5t13 -35.5q0 -16 -16.5 -33.5t-43 -29.5t-56.5 -12z" />
    <glyph glyph-name="uni01F2" unicode="&#x1f2;" horiz-adv-x="1198" 
d="M375 700q72 0 128 -27t94.5 -75.5t58 -112t19.5 -135.5q0 -97 -35 -176.5t-101.5 -126.5t-163.5 -47h-239q-26 0 -43.5 17.5t-17.5 43.5v578q0 26 17.5 43.5t43.5 17.5h239zM365 115q63 0 103 32.5t58.5 86t18.5 116.5q0 47 -10.5 89.5t-32.5 75t-56 51.5t-81 19h-175
l10 9v-490l-6 11h171zM1120 110q24 0 40 -15.5t16 -39.5q0 -23 -16 -39t-40 -16h-322q-25 0 -40 18t-14 36q1 15 4 26.5t15 26.5l249 322l-2 -14h-203q-24 0 -40 16t-16 40q0 23 16 38.5t40 15.5h308q23 0 39 -17t14 -43q-1 -10 -3.5 -20t-13.5 -24l-245 -317v6h214z" />
    <glyph glyph-name="Aringacute" unicode="&#x1fa;" horiz-adv-x="643" 
d="M322 635q-30 0 -56 15t-42 40t-16 54q0 31 16 56t42 40t56 15t56 -15t42 -40t16 -56q0 -29 -16 -54t-42 -40t-56 -15zM322 705q19 0 31.5 11t12.5 28q0 21 -13.5 31t-30.5 10q-19 0 -31.5 -10.5t-12.5 -30.5q0 -17 12.5 -28t31.5 -11zM332 543l-216 -508
q-7 -19 -21.5 -29.5t-31.5 -10.5q-27 0 -40 15t-13 37q0 9 3 19l249 598q8 20 24.5 31t35.5 9q18 0 33.5 -10.5t22.5 -29.5l246 -586q5 -13 5 -24q0 -27 -17.5 -43t-38.5 -16q-18 0 -32.5 11t-22.5 30l-215 501zM147 157l55 115h270l19 -115h-344zM323 888q-19 0 -30.5 10
t-11.5 26q0 7 3.5 13.5t10.5 13.5l86 76q11 9 23.5 15.5t25.5 6.5q17 0 35 -13t18 -36q0 -15 -9.5 -29.5t-27.5 -23.5l-100 -53q-6 -4 -12 -5t-11 -1z" />
    <glyph glyph-name="aringacute" unicode="&#x1fb;" horiz-adv-x="623" 
d="M503 545q26 0 43 -17t17 -44v-423q0 -26 -17 -43.5t-43 -17.5t-43 17.5t-17 43.5v49l22 -9q0 -13 -14 -31.5t-38 -36.5t-56.5 -30.5t-70.5 -12.5q-69 0 -125 35.5t-88.5 98t-32.5 143.5q0 82 32.5 144.5t87.5 98t122 35.5q43 0 79 -13t62.5 -33t41 -40.5t14.5 -34.5
l-36 -13v73q0 26 17 43.5t43 17.5zM301 100q44 0 77 22t51.5 60t18.5 85q0 48 -18.5 86t-51.5 60t-77 22q-43 0 -76 -22t-51.5 -60t-18.5 -86q0 -47 18.5 -85t51.5 -60t76 -22zM309 570q-30 0 -56 15t-42 40t-16 54q0 31 16 56t42 40t56 15t56 -15t42 -40t16 -56
q0 -29 -16 -54t-42 -40t-56 -15zM309 640q19 0 31.5 11t12.5 28q0 21 -13.5 31t-30.5 10q-19 0 -31.5 -10.5t-12.5 -30.5q0 -17 12.5 -28t31.5 -11zM308 818q-19 0 -30.5 10t-11.5 26q0 7 3.5 13.5t10.5 13.5l86 76q11 9 23.5 15.5t25.5 6.5q17 0 35 -13t18 -36
q0 -15 -9.5 -29.5t-27.5 -23.5l-100 -53q-6 -4 -12 -5t-11 -1z" />
    <glyph glyph-name="AEacute" unicode="&#x1fc;" horiz-adv-x="884" 
d="M197 256h228l-18 -38v289l21 -6l-325 -482q-18 -24 -43 -24q-19 0 -36.5 14t-19.5 39q-1 20 13 41l408 585q11 15 25.5 20.5t30.5 5.5h302q26 0 43.5 -16.5t17.5 -42.5q0 -25 -17.5 -40.5t-43.5 -15.5h-261l10 9v-203l-9 19h215q26 0 43.5 -16.5t17.5 -42.5
q0 -25 -17.5 -40.5t-43.5 -15.5h-216l10 15v-221l-10 26h261q26 0 43.5 -17.5t17.5 -40.5q0 -25 -17.5 -41t-43.5 -16h-315q-26 0 -43.5 17.5t-17.5 43.5v95l25 -13h-294zM597 738q-19 0 -30.5 10t-11.5 26q0 7 3.5 13.5t10.5 13.5l86 76q11 9 23.5 15.5t25.5 6.5
q17 0 35 -13t18 -36q0 -15 -9.5 -29.5t-27.5 -23.5l-100 -53q-6 -4 -12 -5t-11 -1z" />
    <glyph glyph-name="aeacute" unicode="&#x1fd;" horiz-adv-x="926" 
d="M272 545q37 0 75.5 -7.5t71 -25.5t52.5 -48.5t20 -75.5v-121l-115 -7v91q0 38 -18 55.5t-43 23t-46 5.5q-35 0 -59 -9t-41 -24t-33 -34q-19 -21 -45 -21q-19 0 -35 13t-16 35q0 10 3 20.5t11 20.5q21 26 50.5 51t71 41.5t96.5 16.5zM233 -10q-45 0 -88.5 17t-72.5 53.5
t-29 93.5q0 52 21.5 90.5t69 60t124.5 21.5h518l-18 -18v25q-2 29 -20.5 52t-46 36.5t-58.5 13.5q-30 0 -56 -8t-45 -27t-30 -51t-11 -81q0 -54 22.5 -91.5t58 -57t75.5 -19.5q37 0 59 6t35.5 14.5t24.5 14.5q18 9 34 9q22 0 36.5 -15t14.5 -35q0 -27 -28 -49
q-26 -22 -73 -38.5t-97 -16.5q-85 0 -147.5 35.5t-96 96.5t-33.5 138q0 90 37 153.5t95.5 97.5t124.5 34q51 0 96.5 -21t80.5 -57.5t55.5 -84.5t20.5 -102q-1 -24 -19 -39t-42 -15h-579q-36 0 -53.5 -11t-23.5 -27t-6 -32q0 -20 11 -33t28 -19t35 -6q45 0 75 13.5t48.5 33
t27.5 36.5l53 -81q-14 -21 -44 -47t-71.5 -44.5t-92.5 -18.5zM426 569q-8 0 -20.5 8.5t-11.5 24.5q0 9 6 19l58 102q9 16 23 28t32 12q28 0 41 -14.5t12 -35.5q-1 -10 -5.5 -21t-13.5 -22l-76 -84q-10 -11 -22 -14t-23 -3z" />
    <glyph glyph-name="Oslashacute" unicode="&#x1fe;" horiz-adv-x="739" 
d="M105 -31q-19 0 -35 14.5t-16 35.5q0 18 12 33l550 678q8 10 18.5 14.5t20.5 4.5q20 0 35.5 -14t15.5 -35q0 -18 -12 -33l-550 -678q-7 -10 -17.5 -15t-21.5 -5zM719 350q0 -75 -25 -140t-70.5 -114.5t-108 -77.5t-136.5 -28t-136 28t-107.5 77.5t-70.5 114.5t-25 140
t25 140t70.5 114.5t107.5 77.5t136 28t136.5 -28t108 -77.5t70.5 -114.5t25 -140zM589 350q0 67 -27 121.5t-74 86.5t-109 32t-109 -32t-73.5 -86t-26.5 -122q0 -67 26.5 -121.5t73.5 -86.5t109 -32t109 32t74 86.5t27 121.5zM371 738q-19 0 -30.5 10t-11.5 26q0 7 3.5 13.5
t10.5 13.5l86 76q11 9 23.5 15.5t25.5 6.5q17 0 35 -13t18 -36q0 -15 -9.5 -29.5t-27.5 -23.5l-100 -53q-6 -4 -12 -5t-11 -1z" />
    <glyph glyph-name="oslashacute" unicode="&#x1ff;" horiz-adv-x="624" 
d="M108 -20q-22 0 -36.5 15.5t-14.5 33.5q0 20 13 34l408 479q15 18 38 18q20 0 35.5 -14.5t15.5 -35.5q0 -18 -13 -33l-408 -479q-15 -18 -38 -18zM584 267q0 -82 -36.5 -144.5t-98 -97.5t-137.5 -35t-137.5 35t-98 97.5t-36.5 144.5t36.5 144.5t98 98t137.5 35.5
t137.5 -35.5t98 -98t36.5 -144.5zM464 267q0 51 -20.5 88.5t-55 58.5t-76.5 21t-76.5 -21t-55 -58.5t-20.5 -88.5q0 -50 20.5 -87.5t55 -58.5t76.5 -21t76.5 21t55 58.5t20.5 87.5zM317 569q-8 0 -20.5 8.5t-11.5 24.5q0 9 6 19l58 102q9 16 23 28t32 12q28 0 41 -14.5
t12 -35.5q-1 -10 -5.5 -21t-13.5 -22l-76 -84q-10 -11 -22 -14t-23 -3z" />
    <glyph glyph-name="uni0200" unicode="&#x200;" horiz-adv-x="639" 
d="M332 543l-216 -508q-7 -19 -21.5 -29.5t-31.5 -10.5q-27 0 -40 15t-13 37q0 9 3 19l249 598q8 20 24.5 31t35.5 9q18 0 33.5 -10.5t22.5 -29.5l246 -586q5 -13 5 -24q0 -27 -17.5 -43t-38.5 -16q-18 0 -32.5 11t-22.5 30l-215 501zM147 157l55 115h270l19 -115h-344z
M222 752q-5 0 -11 1.5t-12 4.5l-100 53q-37 20 -37 53q0 23 18 36t35 13q14 0 26.5 -6.5t22.5 -15.5l86 -76q8 -7 11 -13.5t3 -13.5q0 -16 -11.5 -26t-30.5 -10zM428 762q-5 0 -11 1.5t-12 4.5l-100 53q-37 20 -37 53q0 23 18 36t35 13q14 0 26.5 -6.5t22.5 -15.5l86 -76
q8 -7 11 -13.5t3 -13.5q0 -16 -11.5 -26t-30.5 -10z" />
    <glyph glyph-name="uni0201" unicode="&#x201;" horiz-adv-x="628" 
d="M503 545q26 0 43 -17t17 -44v-423q0 -26 -17 -43.5t-43 -17.5t-43 17.5t-17 43.5v49l22 -9q0 -13 -14 -31.5t-38 -36.5t-56.5 -30.5t-70.5 -12.5q-69 0 -125 35.5t-88.5 98t-32.5 143.5q0 82 32.5 144.5t87.5 98t122 35.5q43 0 79 -13t62.5 -33t41 -40.5t14.5 -34.5
l-36 -13v73q0 26 17 43.5t43 17.5zM301 100q44 0 77 22t51.5 60t18.5 85q0 48 -18.5 86t-51.5 60t-77 22q-43 0 -76 -22t-51.5 -60t-18.5 -86q0 -47 18.5 -85t51.5 -60t76 -22zM413 600q-5 0 -11 1.5t-12 4.5l-100 53q-18 10 -27.5 24t-9.5 29q0 23 18 36t35 13
q14 0 26.5 -6.5t22.5 -15.5l86 -76q14 -13 14 -27q0 -16 -11.5 -26t-30.5 -10zM227 600q-5 0 -11 1.5t-12 4.5l-100 53q-18 10 -27.5 24t-9.5 29q0 23 18 36t35 13q14 0 26.5 -6.5t22.5 -15.5l86 -76q14 -13 14 -27q0 -16 -11.5 -26t-30.5 -10z" />
    <glyph glyph-name="uni0202" unicode="&#x202;" horiz-adv-x="639" 
d="M332 543l-216 -508q-7 -19 -21.5 -29.5t-31.5 -10.5q-27 0 -40 15t-13 37q0 9 3 19l249 598q8 20 24.5 31t35.5 9q18 0 33.5 -10.5t22.5 -29.5l246 -586q5 -13 5 -24q0 -27 -17.5 -43t-38.5 -16q-18 0 -32.5 11t-22.5 30l-215 501zM147 157l55 115h270l19 -115h-344z
M322 928q38 0 69 -10.5t54 -31.5t35 -51q11 -25 1 -40t-30 -15q-21 0 -33.5 9.5t-26.5 26.5q-11 13 -27.5 20t-41.5 7t-41.5 -7t-27.5 -20q-13 -17 -26 -26.5t-34 -9.5q-19 0 -29.5 14.5t-0.5 38.5q13 31 35.5 52t54 32t69.5 11z" />
    <glyph glyph-name="uni0203" unicode="&#x203;" horiz-adv-x="628" 
d="M503 545q26 0 43 -17t17 -44v-423q0 -26 -17 -43.5t-43 -17.5t-43 17.5t-17 43.5v49l22 -9q0 -13 -14 -31.5t-38 -36.5t-56.5 -30.5t-70.5 -12.5q-69 0 -125 35.5t-88.5 98t-32.5 143.5q0 82 32.5 144.5t87.5 98t122 35.5q43 0 79 -13t62.5 -33t41 -40.5t14.5 -34.5
l-36 -13v73q0 26 17 43.5t43 17.5zM301 100q44 0 77 22t51.5 60t18.5 85q0 48 -18.5 86t-51.5 60t-77 22q-43 0 -76 -22t-51.5 -60t-18.5 -86q0 -47 18.5 -85t51.5 -60t76 -22zM307 748q38 0 69 -10.5t54 -31.5t35 -51q11 -25 1 -40t-30 -15q-21 0 -33.5 9.5t-26.5 26.5
q-11 13 -27.5 20t-41.5 7t-41.5 -7t-27.5 -20q-13 -17 -26 -26.5t-34 -9.5q-19 0 -29.5 14.5t-0.5 38.5q13 31 35.5 52t54 32t69.5 11z" />
    <glyph glyph-name="uni0204" unicode="&#x204;" horiz-adv-x="572" 
d="M136 700h335q26 0 43.5 -16.5t17.5 -42.5q0 -25 -17.5 -40.5t-43.5 -15.5h-280l9 17v-195l-8 8h234q26 0 43.5 -16.5t17.5 -42.5q0 -25 -17.5 -40.5t-43.5 -15.5h-231l5 8v-202l-8 9h279q26 0 43.5 -17.5t17.5 -40.5q0 -25 -17.5 -41t-43.5 -16h-335q-26 0 -43.5 17.5
t-17.5 43.5v578q0 26 17.5 43.5t43.5 17.5zM206 752q-5 0 -11 1.5t-12 4.5l-100 53q-37 20 -37 53q0 23 18 36t35 13q14 0 26.5 -6.5t22.5 -15.5l86 -76q8 -7 11 -13.5t3 -13.5q0 -16 -11.5 -26t-30.5 -10zM412 762q-5 0 -11 1.5t-12 4.5l-100 53q-37 20 -37 53q0 23 18 36
t35 13q14 0 26.5 -6.5t22.5 -15.5l86 -76q8 -7 11 -13.5t3 -13.5q0 -16 -11.5 -26t-30.5 -10z" />
    <glyph glyph-name="uni0205" unicode="&#x205;" horiz-adv-x="590" 
d="M317 -10q-85 0 -147.5 35.5t-96 96.5t-33.5 138q0 90 36.5 153.5t95.5 97.5t125 34q51 0 96.5 -21t80.5 -57.5t55.5 -84.5t20.5 -102q-1 -24 -19 -39t-42 -15h-382l-30 100h367l-22 -20v27q-2 29 -20.5 52t-46 36.5t-58.5 13.5q-30 0 -56 -8t-45 -27t-30 -51t-11 -81
q0 -54 22.5 -91.5t58 -57t75.5 -19.5q37 0 59 6t35.5 14.5t24.5 14.5q18 9 34 9q22 0 36.5 -15t14.5 -35q0 -27 -28 -49q-26 -22 -73 -38.5t-97 -16.5zM399 600q-5 0 -11 1.5t-12 4.5l-100 53q-18 10 -27.5 24t-9.5 29q0 23 18 36t35 13q14 0 26.5 -6.5t22.5 -15.5l86 -76
q14 -13 14 -27q0 -16 -11.5 -26t-30.5 -10zM213 600q-5 0 -11 1.5t-12 4.5l-100 53q-18 10 -27.5 24t-9.5 29q0 23 18 36t35 13q14 0 26.5 -6.5t22.5 -15.5l86 -76q14 -13 14 -27q0 -16 -11.5 -26t-30.5 -10z" />
    <glyph glyph-name="uni0206" unicode="&#x206;" horiz-adv-x="572" 
d="M136 700h335q26 0 43.5 -16.5t17.5 -42.5q0 -25 -17.5 -40.5t-43.5 -15.5h-280l9 17v-195l-8 8h234q26 0 43.5 -16.5t17.5 -42.5q0 -25 -17.5 -40.5t-43.5 -15.5h-231l5 8v-202l-8 9h279q26 0 43.5 -17.5t17.5 -40.5q0 -25 -17.5 -41t-43.5 -16h-335q-26 0 -43.5 17.5
t-17.5 43.5v578q0 26 17.5 43.5t43.5 17.5zM306 928q38 0 69 -10.5t54 -31.5t35 -51q11 -25 1 -40t-30 -15q-21 0 -33.5 9.5t-26.5 26.5q-11 13 -27.5 20t-41.5 7t-41.5 -7t-27.5 -20q-13 -17 -26 -26.5t-34 -9.5q-19 0 -29.5 14.5t-0.5 38.5q13 31 35.5 52t54 32t69.5 11z
" />
    <glyph glyph-name="uni0207" unicode="&#x207;" horiz-adv-x="590" 
d="M317 -10q-85 0 -147.5 35.5t-96 96.5t-33.5 138q0 90 36.5 153.5t95.5 97.5t125 34q51 0 96.5 -21t80.5 -57.5t55.5 -84.5t20.5 -102q-1 -24 -19 -39t-42 -15h-382l-30 100h367l-22 -20v27q-2 29 -20.5 52t-46 36.5t-58.5 13.5q-30 0 -56 -8t-45 -27t-30 -51t-11 -81
q0 -54 22.5 -91.5t58 -57t75.5 -19.5q37 0 59 6t35.5 14.5t24.5 14.5q18 9 34 9q22 0 36.5 -15t14.5 -35q0 -27 -28 -49q-26 -22 -73 -38.5t-97 -16.5zM293 748q38 0 69 -10.5t54 -31.5t35 -51q11 -25 1 -40t-30 -15q-21 0 -33.5 9.5t-26.5 26.5q-11 13 -27.5 20t-41.5 7
t-41.5 -7t-27.5 -20q-13 -17 -26 -26.5t-34 -9.5q-19 0 -29.5 14.5t-0.5 38.5q13 31 35.5 52t54 32t69.5 11z" />
    <glyph glyph-name="uni0208" unicode="&#x208;" horiz-adv-x="275" 
d="M200 61q0 -26 -19 -43.5t-44 -17.5q-28 0 -45 17.5t-17 43.5v578q0 26 18 43.5t46 17.5q24 0 42.5 -17.5t18.5 -43.5v-578zM40 752q-5 0 -11 1.5t-12 4.5l-100 53q-37 20 -37 53q0 23 18 36t35 13q14 0 26.5 -6.5t22.5 -15.5l86 -76q8 -7 11 -13.5t3 -13.5
q0 -16 -11.5 -26t-30.5 -10zM246 762q-5 0 -11 1.5t-12 4.5l-100 53q-37 20 -37 53q0 23 18 36t35 13q14 0 26.5 -6.5t22.5 -15.5l86 -76q8 -7 11 -13.5t3 -13.5q0 -16 -11.5 -26t-30.5 -10z" />
    <glyph glyph-name="uni0209" unicode="&#x209;" horiz-adv-x="236" 
d="M178 61q0 -26 -17 -43.5t-43 -17.5t-43 17.5t-17 43.5v413q0 26 17 43.5t43 17.5t43 -17.5t17 -43.5v-413zM224 600q-5 0 -11 1.5t-12 4.5l-100 53q-18 10 -27.5 24t-9.5 29q0 23 18 36t35 13q14 0 26.5 -6.5t22.5 -15.5l86 -76q14 -13 14 -27q0 -16 -11.5 -26t-30.5 -10
zM38 600q-5 0 -11 1.5t-12 4.5l-100 53q-18 10 -27.5 24t-9.5 29q0 23 18 36t35 13q14 0 26.5 -6.5t22.5 -15.5l86 -76q14 -13 14 -27q0 -16 -11.5 -26t-30.5 -10z" />
    <glyph glyph-name="uni020A" unicode="&#x20a;" horiz-adv-x="275" 
d="M200 61q0 -26 -19 -43.5t-44 -17.5q-28 0 -45 17.5t-17 43.5v578q0 26 18 43.5t46 17.5q24 0 42.5 -17.5t18.5 -43.5v-578zM140 928q38 0 69 -10.5t54 -31.5t35 -51q11 -25 1 -40t-30 -15q-21 0 -33.5 9.5t-26.5 26.5q-11 13 -27.5 20t-41.5 7t-41.5 -7t-27.5 -20
q-13 -17 -26 -26.5t-34 -9.5q-19 0 -29.5 14.5t-0.5 38.5q13 31 35.5 52t54 32t69.5 11z" />
    <glyph glyph-name="uni020B" unicode="&#x20b;" horiz-adv-x="236" 
d="M178 61q0 -26 -17 -43.5t-43 -17.5t-43 17.5t-17 43.5v413q0 26 17 43.5t43 17.5t43 -17.5t17 -43.5v-413zM118 748q38 0 69 -10.5t54 -31.5t35 -51q11 -25 1 -40t-30 -15q-21 0 -33.5 9.5t-26.5 26.5q-11 13 -27.5 20t-41.5 7t-41.5 -7t-27.5 -20q-13 -17 -26 -26.5
t-34 -9.5q-19 0 -29.5 14.5t-0.5 38.5q13 31 35.5 52t54 32t69.5 11z" />
    <glyph glyph-name="uni020C" unicode="&#x20c;" horiz-adv-x="759" 
d="M719 350q0 -75 -25 -140t-70.5 -114.5t-108 -77.5t-136.5 -28t-136 28t-107.5 77.5t-70.5 114.5t-25 140t25 140t70.5 114.5t107.5 77.5t136 28t136.5 -28t108 -77.5t70.5 -114.5t25 -140zM589 350q0 67 -27 121.5t-74 86.5t-109 32t-109 -32t-73.5 -86t-26.5 -122
q0 -67 26.5 -121.5t73.5 -86.5t109 -32t109 32t74 86.5t27 121.5zM280 752q-5 0 -11 1.5t-12 4.5l-100 53q-37 20 -37 53q0 23 18 36t35 13q14 0 26.5 -6.5t22.5 -15.5l86 -76q8 -7 11 -13.5t3 -13.5q0 -16 -11.5 -26t-30.5 -10zM486 762q-5 0 -11 1.5t-12 4.5l-100 53
q-37 20 -37 53q0 23 18 36t35 13q14 0 26.5 -6.5t22.5 -15.5l86 -76q8 -7 11 -13.5t3 -13.5q0 -16 -11.5 -26t-30.5 -10z" />
    <glyph glyph-name="uni020D" unicode="&#x20d;" horiz-adv-x="624" 
d="M584 267q0 -82 -36.5 -144.5t-98 -97.5t-137.5 -35t-137.5 35t-98 97.5t-36.5 144.5t36.5 144.5t98 98t137.5 35.5t137.5 -35.5t98 -98t36.5 -144.5zM464 267q0 51 -20.5 88.5t-55 58.5t-76.5 21t-76.5 -21t-55 -58.5t-20.5 -88.5q0 -50 20.5 -87.5t55 -58.5t76.5 -21
t76.5 21t55 58.5t20.5 87.5zM418 600q-5 0 -11 1.5t-12 4.5l-100 53q-18 10 -27.5 24t-9.5 29q0 23 18 36t35 13q14 0 26.5 -6.5t22.5 -15.5l86 -76q14 -13 14 -27q0 -16 -11.5 -26t-30.5 -10zM232 600q-5 0 -11 1.5t-12 4.5l-100 53q-18 10 -27.5 24t-9.5 29q0 23 18 36
t35 13q14 0 26.5 -6.5t22.5 -15.5l86 -76q14 -13 14 -27q0 -16 -11.5 -26t-30.5 -10z" />
    <glyph glyph-name="uni020E" unicode="&#x20e;" horiz-adv-x="759" 
d="M719 350q0 -75 -25 -140t-70.5 -114.5t-108 -77.5t-136.5 -28t-136 28t-107.5 77.5t-70.5 114.5t-25 140t25 140t70.5 114.5t107.5 77.5t136 28t136.5 -28t108 -77.5t70.5 -114.5t25 -140zM589 350q0 67 -27 121.5t-74 86.5t-109 32t-109 -32t-73.5 -86t-26.5 -122
q0 -67 26.5 -121.5t73.5 -86.5t109 -32t109 32t74 86.5t27 121.5zM380 928q38 0 69 -10.5t54 -31.5t35 -51q11 -25 1 -40t-30 -15q-21 0 -33.5 9.5t-26.5 26.5q-11 13 -27.5 20t-41.5 7t-41.5 -7t-27.5 -20q-13 -17 -26 -26.5t-34 -9.5q-19 0 -29.5 14.5t-0.5 38.5
q13 31 35.5 52t54 32t69.5 11z" />
    <glyph glyph-name="uni020F" unicode="&#x20f;" horiz-adv-x="624" 
d="M584 267q0 -82 -36.5 -144.5t-98 -97.5t-137.5 -35t-137.5 35t-98 97.5t-36.5 144.5t36.5 144.5t98 98t137.5 35.5t137.5 -35.5t98 -98t36.5 -144.5zM464 267q0 51 -20.5 88.5t-55 58.5t-76.5 21t-76.5 -21t-55 -58.5t-20.5 -88.5q0 -50 20.5 -87.5t55 -58.5t76.5 -21
t76.5 21t55 58.5t20.5 87.5zM312 748q38 0 69 -10.5t54 -31.5t35 -51q11 -25 1 -40t-30 -15q-21 0 -33.5 9.5t-26.5 26.5q-11 13 -27.5 20t-41.5 7t-41.5 -7t-27.5 -20q-13 -17 -26 -26.5t-34 -9.5q-19 0 -29.5 14.5t-0.5 38.5q13 31 35.5 52t54 32t69.5 11z" />
    <glyph glyph-name="uni0210" unicode="&#x210;" horiz-adv-x="687" 
d="M147 0q-28 0 -50 17.5t-22 43.5v578q0 26 17.5 43.5t43.5 17.5h288q52 0 97.5 -27.5t73.5 -76t28 -111.5q0 -38 -15.5 -74t-42 -65t-59.5 -45l1 23q28 -15 46.5 -35.5t29 -44t12.5 -50.5q4 -25 5.5 -44t6 -32t17.5 -20q22 -13 27.5 -37.5t-11.5 -43.5q-11 -13 -28 -16.5
t-34 0t-28 9.5q-17 10 -34 29.5t-27.5 52.5t-10.5 85q0 17 -6 31.5t-17 25t-28 16t-40 5.5h-202l15 23v-217q0 -26 -14 -43.5t-39 -17.5zM186 358h233q18 0 35 16.5t28 45t11 62.5q0 44 -23.5 73.5t-50.5 29.5h-231l12 32v-283zM244 752q-5 0 -11 1.5t-12 4.5l-100 53
q-37 20 -37 53q0 23 18 36t35 13q14 0 26.5 -6.5t22.5 -15.5l86 -76q8 -7 11 -13.5t3 -13.5q0 -16 -11.5 -26t-30.5 -10zM450 762q-5 0 -11 1.5t-12 4.5l-100 53q-37 20 -37 53q0 23 18 36t35 13q14 0 26.5 -6.5t22.5 -15.5l86 -76q8 -7 11 -13.5t3 -13.5q0 -16 -11.5 -26
t-30.5 -10z" />
    <glyph glyph-name="uni0211" unicode="&#x211;" horiz-adv-x="434" 
d="M125 0q-26 0 -43 17.5t-17 43.5v413q0 26 17 43.5t43 17.5t43 -17.5t17 -43.5v-94l-7 67q11 24 28.5 42.5t39.5 31t47 18.5t50 6q30 0 50.5 -17t20.5 -40q0 -33 -17 -47.5t-37 -14.5q-19 0 -34.5 7t-35.5 7q-18 0 -36.5 -8.5t-34 -26.5t-25 -44.5t-9.5 -62.5v-237
q0 -26 -17 -43.5t-43 -17.5zM323 600q-5 0 -11 1.5t-12 4.5l-100 53q-18 10 -27.5 24t-9.5 29q0 23 18 36t35 13q14 0 26.5 -6.5t22.5 -15.5l86 -76q14 -13 14 -27q0 -16 -11.5 -26t-30.5 -10zM137 600q-5 0 -11 1.5t-12 4.5l-100 53q-18 10 -27.5 24t-9.5 29q0 23 18 36
t35 13q14 0 26.5 -6.5t22.5 -15.5l86 -76q14 -13 14 -27q0 -16 -11.5 -26t-30.5 -10z" />
    <glyph glyph-name="uni0212" unicode="&#x212;" horiz-adv-x="687" 
d="M147 0q-28 0 -50 17.5t-22 43.5v578q0 26 17.5 43.5t43.5 17.5h288q52 0 97.5 -27.5t73.5 -76t28 -111.5q0 -38 -15.5 -74t-42 -65t-59.5 -45l1 23q28 -15 46.5 -35.5t29 -44t12.5 -50.5q4 -25 5.5 -44t6 -32t17.5 -20q22 -13 27.5 -37.5t-11.5 -43.5q-11 -13 -28 -16.5
t-34 0t-28 9.5q-17 10 -34 29.5t-27.5 52.5t-10.5 85q0 17 -6 31.5t-17 25t-28 16t-40 5.5h-202l15 23v-217q0 -26 -14 -43.5t-39 -17.5zM186 358h233q18 0 35 16.5t28 45t11 62.5q0 44 -23.5 73.5t-50.5 29.5h-231l12 32v-283zM344 928q38 0 69 -10.5t54 -31.5t35 -51
q11 -25 1 -40t-30 -15q-21 0 -33.5 9.5t-26.5 26.5q-11 13 -27.5 20t-41.5 7t-41.5 -7t-27.5 -20q-13 -17 -26 -26.5t-34 -9.5q-19 0 -29.5 14.5t-0.5 38.5q13 31 35.5 52t54 32t69.5 11z" />
    <glyph glyph-name="uni0213" unicode="&#x213;" horiz-adv-x="434" 
d="M125 0q-26 0 -43 17.5t-17 43.5v413q0 26 17 43.5t43 17.5t43 -17.5t17 -43.5v-94l-7 67q11 24 28.5 42.5t39.5 31t47 18.5t50 6q30 0 50.5 -17t20.5 -40q0 -33 -17 -47.5t-37 -14.5q-19 0 -34.5 7t-35.5 7q-18 0 -36.5 -8.5t-34 -26.5t-25 -44.5t-9.5 -62.5v-237
q0 -26 -17 -43.5t-43 -17.5zM217 748q38 0 69 -10.5t54 -31.5t35 -51q11 -25 1 -40t-30 -15q-21 0 -33.5 9.5t-26.5 26.5q-11 13 -27.5 20t-41.5 7t-41.5 -7t-27.5 -20q-13 -17 -26 -26.5t-34 -9.5q-19 0 -29.5 14.5t-0.5 38.5q13 31 35.5 52t54 32t69.5 11z" />
    <glyph glyph-name="uni0214" unicode="&#x214;" horiz-adv-x="705" 
d="M572 701q26 0 42 -17.5t16 -43.5v-362q0 -83 -35.5 -147t-97.5 -100t-144 -36t-144.5 36t-98 100t-35.5 147v362q0 26 18 43.5t46 17.5q23 0 41.5 -17.5t18.5 -43.5v-362q0 -50 21.5 -86.5t57 -56.5t75.5 -20q43 0 80 20t60 56.5t23 86.5v362q0 26 15 43.5t41 17.5z
M253 752q-5 0 -11 1.5t-12 4.5l-100 53q-37 20 -37 53q0 23 18 36t35 13q14 0 26.5 -6.5t22.5 -15.5l86 -76q8 -7 11 -13.5t3 -13.5q0 -16 -11.5 -26t-30.5 -10zM459 762q-5 0 -11 1.5t-12 4.5l-100 53q-37 20 -37 53q0 23 18 36t35 13q14 0 26.5 -6.5t22.5 -15.5l86 -76
q8 -7 11 -13.5t3 -13.5q0 -16 -11.5 -26t-30.5 -10z" />
    <glyph glyph-name="uni0215" unicode="&#x215;" horiz-adv-x="587" 
d="M462 535q26 0 43 -17.5t17 -43.5v-254q0 -106 -59 -168t-170 -62t-169.5 62t-58.5 168v254q0 26 17 43.5t43 17.5t43 -17.5t17 -43.5v-254q0 -61 27 -90.5t81 -29.5q55 0 82 29.5t27 90.5v254q0 26 17 43.5t43 17.5zM400 600q-5 0 -11 1.5t-12 4.5l-100 53
q-18 10 -27.5 24t-9.5 29q0 23 18 36t35 13q14 0 26.5 -6.5t22.5 -15.5l86 -76q14 -13 14 -27q0 -16 -11.5 -26t-30.5 -10zM214 600q-5 0 -11 1.5t-12 4.5l-100 53q-18 10 -27.5 24t-9.5 29q0 23 18 36t35 13q14 0 26.5 -6.5t22.5 -15.5l86 -76q14 -13 14 -27
q0 -16 -11.5 -26t-30.5 -10z" />
    <glyph glyph-name="uni0216" unicode="&#x216;" horiz-adv-x="705" 
d="M572 701q26 0 42 -17.5t16 -43.5v-362q0 -83 -35.5 -147t-97.5 -100t-144 -36t-144.5 36t-98 100t-35.5 147v362q0 26 18 43.5t46 17.5q23 0 41.5 -17.5t18.5 -43.5v-362q0 -50 21.5 -86.5t57 -56.5t75.5 -20q43 0 80 20t60 56.5t23 86.5v362q0 26 15 43.5t41 17.5z
M353 928q38 0 69 -10.5t54 -31.5t35 -51q11 -25 1 -40t-30 -15q-21 0 -33.5 9.5t-26.5 26.5q-11 13 -27.5 20t-41.5 7t-41.5 -7t-27.5 -20q-13 -17 -26 -26.5t-34 -9.5q-19 0 -29.5 14.5t-0.5 38.5q13 31 35.5 52t54 32t69.5 11z" />
    <glyph glyph-name="uni0217" unicode="&#x217;" horiz-adv-x="587" 
d="M462 535q26 0 43 -17.5t17 -43.5v-254q0 -106 -59 -168t-170 -62t-169.5 62t-58.5 168v254q0 26 17 43.5t43 17.5t43 -17.5t17 -43.5v-254q0 -61 27 -90.5t81 -29.5q55 0 82 29.5t27 90.5v254q0 26 17 43.5t43 17.5zM294 748q38 0 69 -10.5t54 -31.5t35 -51q11 -25 1 -40
t-30 -15q-21 0 -33.5 9.5t-26.5 26.5q-11 13 -27.5 20t-41.5 7t-41.5 -7t-27.5 -20q-13 -17 -26 -26.5t-34 -9.5q-19 0 -29.5 14.5t-0.5 38.5q13 31 35.5 52t54 32t69.5 11z" />
    <glyph glyph-name="uni0218" unicode="&#x218;" horiz-adv-x="597" 
d="M300 -10q-70 0 -126 17.5t-107 61.5q-13 11 -20 25t-7 28q0 23 16.5 40.5t41.5 17.5q19 0 34 -12q38 -31 75.5 -47t92.5 -16q37 0 68 11.5t50 31t19 44.5q0 30 -18 51t-55 35.5t-94 22.5q-54 8 -95 24.5t-68.5 42t-41.5 60t-14 77.5q0 65 33.5 111t90.5 70t126 24
q65 0 120.5 -19.5t90.5 -49.5q29 -23 29 -53q0 -22 -17 -40t-40 -18q-15 0 -27 9q-16 14 -43 26.5t-57 21t-56 8.5q-43 0 -72.5 -11t-44.5 -30t-15 -44q0 -30 17.5 -49.5t50.5 -31t79 -20.5q60 -11 105.5 -26t75.5 -38.5t45 -59t15 -86.5q0 -65 -36 -112t-94.5 -72
t-126.5 -25zM383 -104q0 -22 -13.5 -43.5t-36.5 -36t-52 -14.5q-25 0 -36.5 11t-11.5 21q0 14 7 18.5t14 4.5q5 0 13.5 -2.5t16.5 -2.5q11 0 18 7.5t7 20.5t-10 13q-7 0 -10 -4.5t-17 -4.5q-16 0 -26 11t-10 30q0 24 19 35.5t49 11.5q34 0 56.5 -20t22.5 -56z" />
    <glyph glyph-name="uni0219" unicode="&#x219;" horiz-adv-x="482" 
d="M34 83q-10 14 -9 36t26 38q16 10 34 8.5t35 -18.5q29 -29 61 -45t80 -16q15 1 33 4.5t31.5 16t13.5 38.5q0 22 -15 35t-39.5 22t-54.5 17q-31 9 -63.5 20t-59.5 28.5t-44 46.5t-17 73q0 50 28 85t72.5 54t93.5 19q31 0 65 -7.5t65 -24t52 -43.5q11 -15 13 -36t-19 -38
q-15 -12 -35 -10.5t-33 13.5q-17 22 -45.5 35t-65.5 13q-15 0 -32.5 -3.5t-30.5 -15t-13 -36.5q0 -23 15 -36.5t40.5 -22t54.5 -16.5q30 -8 61 -19t57 -29t42 -46.5t16 -72.5q0 -51 -30 -87t-75 -54.5t-92 -18.5q-59 0 -118 20.5t-98 72.5zM321 -158q0 -33 -18.5 -66.5
t-48 -56t-62.5 -22.5q-11 0 -23.5 9t-12.5 31q0 23 14.5 27.5t24.5 9.5q13 7 20.5 16.5t7.5 23.5q0 11 -10.5 19.5t-27.5 8.5q-6 0 -14 -1.5t-14 -5.5q-10 5 -17.5 12.5t-7.5 24.5q0 31 28.5 53.5t66.5 22.5q43 0 68.5 -29t25.5 -77z" />
    <glyph glyph-name="uni021A" unicode="&#x21a;" horiz-adv-x="626" 
d="M312 0q-28 0 -46 17.5t-18 43.5v580h130v-580q0 -26 -18.5 -43.5t-47.5 -17.5zM91 585q-26 0 -43.5 16t-17.5 42t17.5 41.5t43.5 15.5h444q26 0 43.5 -16t17.5 -42t-17.5 -41.5t-43.5 -15.5h-444zM397 -104q0 -22 -13.5 -43.5t-36.5 -36t-52 -14.5q-25 0 -36.5 11
t-11.5 21q0 14 7 18.5t14 4.5q5 0 13.5 -2.5t16.5 -2.5q11 0 18 7.5t7 20.5t-10 13q-7 0 -10 -4.5t-17 -4.5q-16 0 -26 11t-10 30q0 24 19 35.5t49 11.5q34 0 56.5 -20t22.5 -56z" />
    <glyph glyph-name="uni021B" unicode="&#x21b;" horiz-adv-x="409" 
d="M71 525h237q24 0 40 -16t16 -40q0 -23 -16 -38.5t-40 -15.5h-237q-24 0 -40 16t-16 40q0 23 16 38.5t40 15.5zM178 650q26 0 42.5 -17.5t16.5 -43.5v-445q0 -14 5.5 -23t15 -13t20.5 -4q12 0 22 4.5t23 4.5q14 0 25.5 -13t11.5 -36q0 -28 -30.5 -46t-65.5 -18
q-21 0 -46.5 3.5t-48 17t-37.5 41.5t-15 77v450q0 26 17.5 43.5t43.5 17.5zM305 -158q0 -33 -18.5 -66.5t-48 -56t-62.5 -22.5q-11 0 -23.5 9t-12.5 31q0 23 14.5 27.5t24.5 9.5q13 7 20.5 16.5t7.5 23.5q0 11 -10.5 19.5t-27.5 8.5q-6 0 -14 -1.5t-14 -5.5
q-10 5 -17.5 12.5t-7.5 24.5q0 31 28.5 53.5t66.5 22.5q43 0 68.5 -29t25.5 -77z" />
    <glyph glyph-name="uni022A" unicode="&#x22a;" horiz-adv-x="759" 
d="M719 350q0 -75 -25 -140t-70.5 -114.5t-108 -77.5t-136.5 -28t-136 28t-107.5 77.5t-70.5 114.5t-25 140t25 140t70.5 114.5t107.5 77.5t136 28t136.5 -28t108 -77.5t70.5 -114.5t25 -140zM589 350q0 67 -27 121.5t-74 86.5t-109 32t-109 -32t-73.5 -86t-26.5 -122
q0 -67 26.5 -121.5t73.5 -86.5t109 -32t109 32t74 86.5t27 121.5zM478 760q-31 0 -45.5 11t-14.5 39v18q0 29 15 39.5t45 10.5q34 0 48.5 -11t14.5 -39v-18q0 -29 -15 -39.5t-48 -10.5zM279 760q-31 0 -45.5 11t-14.5 39v18q0 29 15.5 39.5t45.5 10.5q33 0 47.5 -11
t14.5 -39v-18q0 -29 -15 -39.5t-48 -10.5zM259 948q-50 0 -50 45q0 44 50 44h242q50 0 50 -44q0 -45 -50 -45h-242z" />
    <glyph glyph-name="uni022B" unicode="&#x22b;" horiz-adv-x="624" 
d="M584 267q0 -82 -36.5 -144.5t-98 -97.5t-137.5 -35t-137.5 35t-98 97.5t-36.5 144.5t36.5 144.5t98 98t137.5 35.5t137.5 -35.5t98 -98t36.5 -144.5zM464 267q0 51 -20.5 88.5t-55 58.5t-76.5 21t-76.5 -21t-55 -58.5t-20.5 -88.5q0 -50 20.5 -87.5t55 -58.5t76.5 -21
t76.5 21t55 58.5t20.5 87.5zM409 600q-31 0 -45 11.5t-14 38.5v18q0 29 15.5 39.5t45.5 10.5q33 0 47.5 -11t14.5 -39v-18q0 -30 -15 -40t-49 -10zM210 600q-31 0 -45 11.5t-14 38.5v18q0 28 15 39t44 11q35 0 49.5 -10.5t14.5 -39.5v-18q0 -30 -15 -40t-49 -10zM191 803
q-50 0 -50 45q0 44 50 44h242q50 0 50 -44q0 -45 -50 -45h-242z" />
    <glyph glyph-name="uni022C" unicode="&#x22c;" horiz-adv-x="759" 
d="M719 350q0 -75 -25 -140t-70.5 -114.5t-108 -77.5t-136.5 -28t-136 28t-107.5 77.5t-70.5 114.5t-25 140t25 140t70.5 114.5t107.5 77.5t136 28t136.5 -28t108 -77.5t70.5 -114.5t25 -140zM589 350q0 67 -27 121.5t-74 86.5t-109 32t-109 -32t-73.5 -86t-26.5 -122
q0 -67 26.5 -121.5t73.5 -86.5t109 -32t109 32t74 86.5t27 121.5zM245 736q-22 0 -38.5 19.5t-16.5 51.5t28.5 60t82.5 28q34 0 63 -15.5t53.5 -31t42.5 -15.5q11 0 17 5.5t3 15.5q-7 23 5 36t30 13q23 0 39 -19t16 -50q0 -17 -10 -38t-31 -36.5t-54 -15.5q-37 0 -70 15.5
t-60 31t-45 15.5q-10 0 -16.5 -5.5t-3.5 -15.5q7 -22 -5 -35.5t-30 -13.5zM259 967q-50 0 -50 45q0 44 50 44h242q50 0 50 -44q0 -45 -50 -45h-242z" />
    </font>
</defs>
</svg>
